  0
SECTION
  2
HEADER
  9
$ACADVER
  1
AC1015
  9
$ACADMAINTVER
 70
     6
  9
$DWGCODEPAGE
  3
ANSI_1252
  9
$INSBASE
 10
0.0
 20
0.0
 30
0.0
  9
$EXTMIN
 10
0.0
 20
0.0
 30
0.0
  9
$EXTMAX
 10
297.0000000000002
 20
210.0000000000002
 30
0.0
  9
$LIMMIN
 10
0.0
 20
0.0
  9
$LIMMAX
 10
12.0
 20
9.0
  9
$ORTHOMODE
 70
     0
  9
$REGENMODE
 70
     1
  9
$FILLMODE
 70
     1
  9
$QTEXTMODE
 70
     0
  9
$MIRRTEXT
 70
     1
  9
$LTSCALE
 40
1.0
  9
$ATTMODE
 70
     1
  9
$TEXTSIZE
 40
0.2
  9
$TRACEWID
 40
0.05
  9
$TEXTSTYLE
  7
Standard
  9
$CLAYER
  8
0
  9
$CELTYPE
  6
ByLayer
  9
$CECOLOR
 62
   256
  9
$CELTSCALE
 40
1.0
  9
$DISPSILH
 70
     0
  9
$DIMSCALE
 40
1.0
  9
$DIMASZ
 40
0.18
  9
$DIMEXO
 40
0.0625
  9
$DIMDLI
 40
0.38
  9
$DIMRND
 40
0.0
  9
$DIMDLE
 40
0.0
  9
$DIMEXE
 40
0.18
  9
$DIMTP
 40
0.0
  9
$DIMTM
 40
0.0
  9
$DIMTXT
 40
0.18
  9
$DIMCEN
 40
0.09
  9
$DIMTSZ
 40
0.0
  9
$DIMTOL
 70
     0
  9
$DIMLIM
 70
     0
  9
$DIMTIH
 70
     1
  9
$DIMTOH
 70
     1
  9
$DIMSE1
 70
     0
  9
$DIMSE2
 70
     0
  9
$DIMTAD
 70
     0
  9
$DIMZIN
 70
     0
  9
$DIMBLK
  1

  9
$DIMASO
 70
     1
  9
$DIMSHO
 70
     1
  9
$DIMPOST
  1

  9
$DIMAPOST
  1

  9
$DIMALT
 70
     0
  9
$DIMALTD
 70
     2
  9
$DIMALTF
 40
25.4
  9
$DIMLFAC
 40
1.0
  9
$DIMTOFL
 70
     0
  9
$DIMTVP
 40
0.0
  9
$DIMTIX
 70
     0
  9
$DIMSOXD
 70
     0
  9
$DIMSAH
 70
     0
  9
$DIMBLK1
  1

  9
$DIMBLK2
  1

  9
$DIMSTYLE
  2
Standard
  9
$DIMCLRD
 70
     0
  9
$DIMCLRE
 70
     0
  9
$DIMCLRT
 70
     0
  9
$DIMTFAC
 40
1.0
  9
$DIMGAP
 40
0.09
  9
$DIMJUST
 70
     0
  9
$DIMSD1
 70
     0
  9
$DIMSD2
 70
     0
  9
$DIMTOLJ
 70
     1
  9
$DIMTZIN
 70
     0
  9
$DIMALTZ
 70
     0
  9
$DIMALTTZ
 70
     0
  9
$DIMUPT
 70
     0
  9
$DIMDEC
 70
     4
  9
$DIMTDEC
 70
     4
  9
$DIMALTU
 70
     2
  9
$DIMALTTD
 70
     2
  9
$DIMTXSTY
  7
Standard
  9
$DIMAUNIT
 70
     0
  9
$DIMADEC
 70
     0
  9
$DIMALTRND
 40
0.0
  9
$DIMAZIN
 70
     0
  9
$DIMDSEP
 70
    46
  9
$DIMATFIT
 70
     3
  9
$DIMFRAC
 70
     0
  9
$DIMLDRBLK
  1

  9
$DIMLUNIT
 70
     2
  9
$DIMLWD
 70
    -2
  9
$DIMLWE
 70
    -2
  9
$DIMTMOVE
 70
     0
  9
$LUNITS
 70
     2
  9
$LUPREC
 70
     4
  9
$SKETCHINC
 40
0.1
  9
$FILLETRAD
 40
0.5
  9
$AUNITS
 70
     0
  9
$AUPREC
 70
     0
  9
$MENU
  1
.
  9
$ELEVATION
 40
0.0
  9
$PELEVATION
 40
0.0
  9
$THICKNESS
 40
0.0
  9
$LIMCHECK
 70
     0
  9
$CHAMFERA
 40
0.5
  9
$CHAMFERB
 40
0.5
  9
$CHAMFERC
 40
1.0
  9
$CHAMFERD
 40
0.0
  9
$SKPOLY
 70
     0
  9
$TDCREATE
 40
2456997.60657228
  9
$TDUCREATE
 40
2456997.564905613
  9
$TDUPDATE
 40
2456997.60657265
  9
$TDUUPDATE
 40
2456997.564905984
  9
$TDINDWG
 40
0.0000000116
  9
$TDUSRTIMER
 40
0.0000000116
  9
$USRTIMER
 70
     1
  9
$ANGBASE
 50
0.0
  9
$ANGDIR
 70
     0
  9
$PDMODE
 70
     0
  9
$PDSIZE
 40
0.0
  9
$PLINEWID
 40
0.0
  9
$SPLFRAME
 70
     0
  9
$SPLINETYPE
 70
     6
  9
$SPLINESEGS
 70
     8
  9
$HANDSEED
  5
337
  9
$SURFTAB1
 70
     6
  9
$SURFTAB2
 70
     6
  9
$SURFTYPE
 70
     6
  9
$SURFU
 70
     6
  9
$SURFV
 70
     6
  9
$UCSBASE
  2

  9
$UCSNAME
  2

  9
$UCSORG
 10
0.0
 20
0.0
 30
0.0
  9
$UCSXDIR
 10
1.0
 20
0.0
 30
0.0
  9
$UCSYDIR
 10
0.0
 20
1.0
 30
0.0
  9
$UCSORTHOREF
  2

  9
$UCSORTHOVIEW
 70
     0
  9
$UCSORGTOP
 10
0.0
 20
0.0
 30
0.0
  9
$UCSORGBOTTOM
 10
0.0
 20
0.0
 30
0.0
  9
$UCSORGLEFT
 10
0.0
 20
0.0
 30
0.0
  9
$UCSORGRIGHT
 10
0.0
 20
0.0
 30
0.0
  9
$UCSORGFRONT
 10
0.0
 20
0.0
 30
0.0
  9
$UCSORGBACK
 10
0.0
 20
0.0
 30
0.0
  9
$PUCSBASE
  2

  9
$PUCSNAME
  2

  9
$PUCSORG
 10
0.0
 20
0.0
 30
0.0
  9
$PUCSXDIR
 10
1.0
 20
0.0
 30
0.0
  9
$PUCSYDIR
 10
0.0
 20
1.0
 30
0.0
  9
$PUCSORTHOREF
  2

  9
$PUCSORTHOVIEW
 70
     0
  9
$PUCSORGTOP
 10
0.0
 20
0.0
 30
0.0
  9
$PUCSORGBOTTOM
 10
0.0
 20
0.0
 30
0.0
  9
$PUCSORGLEFT
 10
0.0
 20
0.0
 30
0.0
  9
$PUCSORGRIGHT
 10
0.0
 20
0.0
 30
0.0
  9
$PUCSORGFRONT
 10
0.0
 20
0.0
 30
0.0
  9
$PUCSORGBACK
 10
0.0
 20
0.0
 30
0.0
  9
$USERI1
 70
     0
  9
$USERI2
 70
     0
  9
$USERI3
 70
     0
  9
$USERI4
 70
     0
  9
$USERI5
 70
     0
  9
$USERR1
 40
18.1
  9
$USERR2
 40
0.0
  9
$USERR3
 40
0.0
  9
$USERR4
 40
0.0
  9
$USERR5
 40
0.0
  9
$WORLDVIEW
 70
     1
  9
$SHADEDGE
 70
     3
  9
$SHADEDIF
 70
    70
  9
$TILEMODE
 70
     1
  9
$MAXACTVP
 70
    64
  9
$PINSBASE
 10
0.0
 20
0.0
 30
0.0
  9
$PLIMCHECK
 70
     0
  9
$PEXTMIN
 10
1.00000000000000E+20
 20
1.00000000000000E+20
 30
1.00000000000000E+20
  9
$PEXTMAX
 10
-1.00000000000000E+20
 20
-1.00000000000000E+20
 30
-1.00000000000000E+20
  9
$PLIMMIN
 10
0.0
 20
0.0
  9
$PLIMMAX
 10
12.0
 20
9.0
  9
$UNITMODE
 70
     0
  9
$VISRETAIN
 70
     1
  9
$PLINEGEN
 70
     0
  9
$PSLTSCALE
 70
     1
  9
$TREEDEPTH
 70
  3020
  9
$CMLSTYLE
  2
Standard
  9
$CMLJUST
 70
     0
  9
$CMLSCALE
 40
1.0
  9
$PROXYGRAPHICS
 70
     1
  9
$MEASUREMENT
 70
     1
  9
$CELWEIGHT
370
    -1
  9
$ENDCAPS
280
     0
  9
$JOINSTYLE
280
     0
  9
$LWDISPLAY
290
     0
  9
$INSUNITS
 70
     4
  9
$HYPERLINKBASE
  1

  9
$STYLESHEET
  1

  9
$XEDIT
290
     1
  9
$CEPSNTYPE
380
     0
  9
$PSTYLEMODE
290
     1
  9
$FINGERPRINTGUID
  2
{CAC3A489-D5DA-4C33-B6B6-3A8E4EE1F92F}
  9
$VERSIONGUID
  2
{FAEB1C32-E019-11D5-929B-00C0DF256EC4}
  9
$EXTNAMES
290
     1
  9
$PSVPSCALE
 40
0.0
  9
$OLESTARTUP
290
     0
  0
ENDSEC
  0
SECTION
  2
CLASSES
  0
CLASS
  1
ACDBDICTIONARYWDFLT
  2
AcDbDictionaryWithDefault
  3
ObjectDBX Classes
 90
        0
280
     0
281
     0
  0
CLASS
  1
VISUALSTYLE
  2
AcDbVisualStyle
  3
ObjectDBX Classes
 90
     4095
280
     0
281
     0
  0
CLASS
  1
MATERIAL
  2
AcDbMaterial
  3
ObjectDBX Classes
 90
     1153
280
     0
281
     0
  0
CLASS
  1
DICTIONARYVAR
  2
AcDbDictionaryVar
  3
ObjectDBX Classes
 90
        0
280
     0
281
     0
  0
CLASS
  1
ACDBPLACEHOLDER
  2
AcDbPlaceHolder
  3
ObjectDBX Classes
 90
        0
280
     0
281
     0
  0
CLASS
  1
LAYOUT
  2
AcDbLayout
  3
ObjectDBX Classes
 90
        0
280
     0
281
     0
  0
ENDSEC
  0
SECTION
  2
TABLES
  0
TABLE
  2
VPORT
  5
8
330
0
100
AcDbSymbolTable
 70
     1
  0
VPORT
  5
29
330
8
100
AcDbSymbolTableRecord
100
AcDbViewportTableRecord
  2
*Active
 70
     0
 10
0.0
 20
0.0
 11
1.0
 21
1.0
 12
148.5000000000001
 22
105.0000000000001
 13
0.0
 23
0.0
 14
0.5
 24
0.5
 15
0.5
 25
0.5
 16
0.0
 26
0.0
 36
1.0
 17
0.0
 27
0.0
 37
0.0
 40
231.0000000000002
 41
1.60267857142857
 42
50.0
 43
0.0
 44
0.0
 50
0.0
 51
0.0
 71
     0
 72
   100
 73
     1
 74
     3
 75
     0
 76
     0
 77
     0
 78
     0
281
     0
 65
     1
110
0.0
120
0.0
130
0.0
111
1.0
121
0.0
131
0.0
112
0.0
122
1.0
132
0.0
 79
     0
146
0.0
  0
ENDTAB
  0
TABLE
  2
LTYPE
  5
5
330
0
100
AcDbSymbolTable
 70
     8
  0
LTYPE
  5
14
330
5
100
AcDbSymbolTableRecord
100
AcDbLinetypeTableRecord
  2
ByBlock
 70
     0
  3

 72
    65
 73
     0
 40
0.0
  0
LTYPE
  5
15
330
5
100
AcDbSymbolTableRecord
100
AcDbLinetypeTableRecord
  2
ByLayer
 70
     0
  3

 72
    65
 73
     0
 40
0.0
  0
LTYPE
  5
16
330
5
100
AcDbSymbolTableRecord
100
AcDbLinetypeTableRecord
  2
Continuous
 70
     0
  3
Solid line
 72
    65
 73
     0
 40
0.0
  0
LTYPE
  5
3F
330
5
100
AcDbSymbolTableRecord
100
AcDbLinetypeTableRecord
  2
DASHED
 70
     0
  3
Dashed
 72
    65
 73
     2
 40
15.0
 49
7.0
 74
     0
 49
-8.0
 74
     0
  0
LTYPE
  5
40
330
5
100
AcDbSymbolTableRecord
100
AcDbLinetypeTableRecord
  2
DOTTED
 70
     0
  3
Dotted
 72
    65
 73
     2
 40
1.0
 49
0.0
 74
     0
 49
-1.0
 74
     0
  0
LTYPE
  5
41
330
5
100
AcDbSymbolTableRecord
100
AcDbLinetypeTableRecord
  2
DOT_CENTER
 70
     0
  3
Dot_Center
 72
    65
 73
     4
 40
14.0
 49
12.0
 74
     0
 49
-1.0
 74
     0
 49
0.0
 74
     0
 49
-1.0
 74
     0
  0
LTYPE
  5
42
330
5
100
AcDbSymbolTableRecord
100
AcDbLinetypeTableRecord
  2
LONG_DASHED
 70
     0
  3
Long_Dashed
 72
    65
 73
     2
 40
15.0
 49
10.0
 74
     0
 49
-5.0
 74
     0
  0
LTYPE
  5
43
330
5
100
AcDbSymbolTableRecord
100
AcDbLinetypeTableRecord
  2
DASH_CENTER
 70
     0
  3
Dash_Center
 72
    65
 73
     4
 40
14.0
 49
11.0
 74
     0
 49
-1.0
 74
     0
 49
1.0
 74
     0
 49
-1.0
 74
     0
  0
LTYPE
  5
44
330
5
100
AcDbSymbolTableRecord
100
AcDbLinetypeTableRecord
  2
PHANTOM
 70
     0
  3
Phantom
 72
    65
 73
     6
 40
13.0
 49
10.0
 74
     0
 49
-1.0
 74
     0
 49
0.0
 74
     0
 49
-1.0
 74
     0
 49
0.0
 74
     0
 49
-1.0
 74
     0
  0
LTYPE
  5
45
330
5
100
AcDbSymbolTableRecord
100
AcDbLinetypeTableRecord
  2
CENTER_DASH_DASH
 70
     0
  3
Center_Dash_Dash
 72
    65
 73
     6
 40
14.0
 49
9.0
 74
     0
 49
-1.0
 74
     0
 49
1.0
 74
     0
 49
-1.0
 74
     0
 49
1.0
 74
     0
 49
-1.0
 74
     0
  0
ENDTAB
  0
TABLE
  2
LAYER
  5
2
330
0
100
AcDbSymbolTable
 70
     3
  0
LAYER
  5
10
330
2
100
AcDbSymbolTableRecord
100
AcDbLayerTableRecord
  2
0
 70
     0
 62
     7
  6
Continuous
370
    -3
390
F
  0
LAYER
  5
46
330
2
100
AcDbSymbolTableRecord
100
AcDbLayerTableRecord
  2
1
 70
     0
 62
     7
  6
Continuous
370
    -3
390
F
  0
LAYER
  5
47
330
2
100
AcDbSymbolTableRecord
100
AcDbLayerTableRecord
  2
Sichtbare_Kanten_TC_020513_DIN_
 70
     0
 62
     7
  6
Continuous
370
    -3
390
F
  0
ENDTAB
  0
TABLE
  2
STYLE
  5
3
330
0
100
AcDbSymbolTable
 70
     4
  0
STYLE
  5
11
330
3
100
AcDbSymbolTableRecord
100
AcDbTextStyleTableRecord
  2
Standard
 70
     0
 40
0.0
 41
1.0
 50
0.0
 71
     0
 42
0.2
  3
txt
  4

  0
STYLE
  5
9C
330
3
100
AcDbSymbolTableRecord
100
AcDbTextStyleTableRecord
  2
CONVERTER_11
 70
     0
 40
0.0
 41
1.2
 50
0.0
 71
     0
 42
0.2
  3
ARIAL.TTF
  4

  0
STYLE
  5
A1
330
3
100
AcDbSymbolTableRecord
100
AcDbTextStyleTableRecord
  2
CONVERTER_12
 70
     0
 40
0.0
 41
1.38
 50
0.0
 71
     0
 42
0.2
  3
ARIAL.TTF
  4

  0
STYLE
  5
2A4
330
3
100
AcDbSymbolTableRecord
100
AcDbTextStyleTableRecord
  2
CONVERTER_13
 70
     0
 40
0.0
 41
0.95
 50
0.0
 71
     0
 42
0.2
  3
simplex.shx
  4

  0
ENDTAB
  0
TABLE
  2
VIEW
  5
6
330
0
100
AcDbSymbolTable
 70
     0
  0
ENDTAB
  0
TABLE
  2
UCS
  5
7
330
0
100
AcDbSymbolTable
 70
     0
  0
ENDTAB
  0
TABLE
  2
APPID
  5
9
330
0
100
AcDbSymbolTable
 70
     1
  0
APPID
  5
12
330
9
100
AcDbSymbolTableRecord
100
AcDbRegAppTableRecord
  2
ACAD
 70
     0
  0
ENDTAB
  0
TABLE
  2
DIMSTYLE
  5
A
330
0
100
AcDbSymbolTable
 70
    10
100
AcDbDimStyleTable
  0
DIMSTYLE
105
27
330
A
100
AcDbSymbolTableRecord
100
AcDbDimStyleTableRecord
  2
Standard
 70
     0
178
     0
340
11
  0
DIMSTYLE
105
2B0
102
{ACAD_REACTORS
330
2B1
102
}
330
A
100
AcDbSymbolTableRecord
100
AcDbDimStyleTableRecord
  2
ME10_DIM_10
 70
     0
 41
3.0
 42
0.5
 44
1.0
 73
     0
 74
     0
 77
     1
 78
     8
140
3.0
147
2.0
172
     1
173
     1
174
     1
175
     1
176
     2
177
     2
271
     2
178
     4
271
     2
340
2A4
  0
DIMSTYLE
105
2BB
102
{ACAD_REACTORS
330
2BC
102
}
330
A
100
AcDbSymbolTableRecord
100
AcDbDimStyleTableRecord
  2
ME10_DIM_11
 70
     0
 41
3.0
 42
0.5
 44
1.0
 73
     0
 74
     0
 77
     1
 78
     8
140
3.0
147
2.0
172
     1
173
     1
174
     1
175
     1
176
     2
177
     2
271
     2
178
     4
271
     2
340
2A4
  0
DIMSTYLE
105
2C6
102
{ACAD_REACTORS
330
2C7
102
}
330
A
100
AcDbSymbolTableRecord
100
AcDbDimStyleTableRecord
  2
ME10_DIM_12
 70
     0
 41
3.0
 42
0.5
 44
1.0
 73
     0
 74
     0
 77
     1
 78
     8
140
3.0
147
2.0
172
     1
173
     1
174
     1
175
     1
176
     2
177
     2
271
     2
178
     4
271
     2
340
2A4
  0
DIMSTYLE
105
2D1
102
{ACAD_REACTORS
330
2D2
102
}
330
A
100
AcDbSymbolTableRecord
100
AcDbDimStyleTableRecord
  2
ME10_DIM_13
 70
     0
 41
3.0
 42
0.5
 44
1.0
 73
     0
 74
     0
 77
     1
 78
     8
140
3.0
147
2.0
172
     1
173
     1
174
     1
175
     1
176
     2
177
     2
271
     2
178
     4
271
     2
340
2A4
  0
DIMSTYLE
105
2DC
102
{ACAD_REACTORS
330
2DD
102
}
330
A
100
AcDbSymbolTableRecord
100
AcDbDimStyleTableRecord
  2
ME10_DIM_14
 70
     0
 41
3.0
 42
0.5
 44
1.0
 73
     0
 74
     0
 77
     1
 78
     8
140
3.0
147
2.0
172
     1
173
     1
174
     1
175
     1
176
     2
177
     2
271
     2
178
     4
271
     2
340
2A4
  0
DIMSTYLE
105
2E7
102
{ACAD_REACTORS
330
2E8
102
}
330
A
100
AcDbSymbolTableRecord
100
AcDbDimStyleTableRecord
  2
ME10_DIM_15
 70
     0
 41
3.0
 42
0.5
 44
1.0
 73
     0
 74
     0
 77
     1
 78
     8
140
3.0
147
2.0
172
     1
173
     1
174
     1
175
     1
176
     2
177
     2
271
     2
178
     4
271
     2
340
2A4
  0
DIMSTYLE
105
2F4
102
{ACAD_REACTORS
330
2F5
102
}
330
A
100
AcDbSymbolTableRecord
100
AcDbDimStyleTableRecord
  2
ME10_DIM_16
 70
     0
 41
3.0
 42
0.5
 44
1.0
 73
     0
 74
     0
 77
     1
 78
     8
140
3.0
147
2.0
172
     1
173
     1
174
     1
175
     1
176
     2
177
     2
271
     2
178
     4
271
     2
340
2A4
  0
DIMSTYLE
105
2FF
102
{ACAD_REACTORS
330
300
102
}
330
A
100
AcDbSymbolTableRecord
100
AcDbDimStyleTableRecord
  2
ME10_DIM_17
 70
     0
 41
3.0
 42
0.5
 44
1.0
 73
     0
 74
     0
 77
     1
 78
     8
140
3.0
147
2.0
172
     1
173
     1
174
     1
175
     1
176
     2
177
     2
271
     2
178
     4
271
     2
340
2A4
  0
DIMSTYLE
105
30A
102
{ACAD_REACTORS
330
30B
102
}
330
A
100
AcDbSymbolTableRecord
100
AcDbDimStyleTableRecord
  2
ME10_DIM_18
 70
     0
 41
3.0
 42
0.5
 44
1.0
 73
     0
 74
     0
 77
     1
 78
     8
140
3.0
147
2.0
172
     1
173
     1
174
     1
175
     1
176
     2
177
     2
271
     2
178
     4
271
     2
340
2A4
  0
ENDTAB
  0
TABLE
  2
BLOCK_RECORD
  5
1
330
0
100
AcDbSymbolTable
 70
    12
  0
BLOCK_RECORD
  5
1F
330
1
100
AcDbSymbolTableRecord
100
AcDbBlockTableRecord
  2
*Model_Space
340
22
  0
BLOCK_RECORD
  5
1B
330
1
100
AcDbSymbolTableRecord
100
AcDbBlockTableRecord
  2
*Paper_Space
340
1E
  0
BLOCK_RECORD
  5
23
330
1
100
AcDbSymbolTableRecord
100
AcDbBlockTableRecord
  2
*Paper_Space0
340
26
  0
BLOCK_RECORD
  5
48
330
1
100
AcDbSymbolTableRecord
100
AcDbBlockTableRecord
  2
_formato_A4
340
0
102
{BLKREFS
331
4C
102
}
  0
BLOCK_RECORD
  5
4B
330
1
100
AcDbSymbolTableRecord
100
AcDbBlockTableRecord
  2
A4_oriz
340
0
102
{BLKREFS
331
4F
102
}
  0
BLOCK_RECORD
  5
2A7
330
1
100
AcDbSymbolTableRecord
100
AcDbBlockTableRecord
  2
*D3
340
0
  0
BLOCK_RECORD
  5
2B2
330
1
100
AcDbSymbolTableRecord
100
AcDbBlockTableRecord
  2
*D4
340
0
  0
BLOCK_RECORD
  5
2BD
330
1
100
AcDbSymbolTableRecord
100
AcDbBlockTableRecord
  2
*D5
340
0
  0
BLOCK_RECORD
  5
2C8
330
1
100
AcDbSymbolTableRecord
100
AcDbBlockTableRecord
  2
*D6
340
0
  0
BLOCK_RECORD
  5
2D3
330
1
100
AcDbSymbolTableRecord
100
AcDbBlockTableRecord
  2
*D7
340
0
  0
BLOCK_RECORD
  5
2DE
330
1
100
AcDbSymbolTableRecord
100
AcDbBlockTableRecord
  2
*D8
340
0
  0
BLOCK_RECORD
  5
2E9
330
1
100
AcDbSymbolTableRecord
100
AcDbBlockTableRecord
  2
*D9
340
0
  0
BLOCK_RECORD
  5
2F6
330
1
100
AcDbSymbolTableRecord
100
AcDbBlockTableRecord
  2
*D10
340
0
  0
BLOCK_RECORD
  5
301
330
1
100
AcDbSymbolTableRecord
100
AcDbBlockTableRecord
  2
*D11
340
0
  0
ENDTAB
  0
ENDSEC
  0
SECTION
  2
BLOCKS
  0
BLOCK
  5
20
330
1F
100
AcDbEntity
  8
0
100
AcDbBlockBegin
  2
*Model_Space
 70
     0
 10
0.0
 20
0.0
 30
0.0
  3
*Model_Space
  1

  0
ENDBLK
  5
21
330
1F
100
AcDbEntity
  8
0
100
AcDbBlockEnd
  0
BLOCK
  5
1C
330
1B
100
AcDbEntity
 67
     1
  8
0
100
AcDbBlockBegin
  2
*Paper_Space
 70
     0
 10
0.0
 20
0.0
 30
0.0
  3
*Paper_Space
  1

  0
ENDBLK
  5
1D
330
1B
100
AcDbEntity
 67
     1
  8
0
100
AcDbBlockEnd
  0
BLOCK
  5
24
330
23
100
AcDbEntity
  8
0
100
AcDbBlockBegin
  2
*Paper_Space0
 70
     0
 10
0.0
 20
0.0
 30
0.0
  3
*Paper_Space0
  1

  0
ENDBLK
  5
25
330
23
100
AcDbEntity
  8
0
100
AcDbBlockEnd
  0
BLOCK
  5
49
330
48
100
AcDbEntity
  8
0
100
AcDbBlockBegin
  2
_formato_A4
 70
     0
 10
-851.9009473860199
 20
25.56141494573951
 30
0.0
  3
_formato_A4
  1

  0
LINE
  5
50
330
48
100
AcDbEntity
  8
1
  6
Continuous
 62
     7
100
AcDbLine
 10
-1040.90094738602
 20
35.56141494573937
 30
0.0
 11
-1010.90094738602
 21
35.56141494573937
 31
0.0
  0
LINE
  5
51
330
48
100
AcDbEntity
  8
1
  6
Continuous
 62
     7
100
AcDbLine
 10
-1040.90094738602
 20
40.5614149457394
 30
0.0
 11
-1010.90094738602
 21
40.5614149457394
 31
0.0
  0
LINE
  5
52
330
48
100
AcDbEntity
  8
1
  6
Continuous
 62
     7
100
AcDbLine
 10
-900.9009473860199
 20
45.56141494573951
 30
0.0
 11
-900.9009473860199
 21
30.56141494573951
 31
0.0
  0
LINE
  5
53
330
48
100
AcDbEntity
  8
1
  6
Continuous
 62
     7
100
AcDbLine
 10
-883.548346008534
 20
45.56141494573951
 30
0.0
 11
-883.548346008534
 21
30.56141494573951
 31
0.0
  0
LINE
  5
54
330
48
100
AcDbEntity
  8
1
  6
Continuous
 62
     7
100
AcDbLine
 10
-1010.90094738602
 20
45.56141494573951
 30
0.0
 11
-1010.90094738602
 21
30.56141494573951
 31
0.0
  0
LINE
  5
55
330
48
100
AcDbEntity
  8
1
  6
Continuous
 62
     7
100
AcDbLine
 10
-1000.40094738602
 20
235.5614149457397
 30
0.0
 11
-1000.40094738602
 21
220.5614149457397
 31
0.0
  0
LINE
  5
56
330
48
100
AcDbEntity
  8
1
  6
Continuous
 62
     7
100
AcDbLine
 10
-1148.90094738602
 20
25.56141494573951
 30
0.0
 11
-851.9009473860199
 21
25.56141494573951
 31
0.0
  0
LINE
  5
57
330
48
100
AcDbEntity
  8
1
  6
Continuous
 62
     7
100
AcDbLine
 10
-1148.90094738602
 20
235.5614149457397
 30
0.0
 11
-1148.90094738602
 21
25.56141494573951
 31
0.0
  0
LINE
  5
58
330
48
100
AcDbEntity
  8
1
  6
Continuous
 62
     7
100
AcDbLine
 10
-851.9009473860199
 20
235.5614149457397
 30
0.0
 11
-1148.90094738602
 21
235.5614149457397
 31
0.0
  0
LINE
  5
59
330
48
100
AcDbEntity
  8
1
  6
Continuous
 62
     7
100
AcDbLine
 10
-851.9009473860199
 20
25.56141494573951
 30
0.0
 11
-851.9009473860199
 21
235.5614149457397
 31
0.0
  0
LINE
  5
5A
330
48
100
AcDbEntity
  8
1
  6
Continuous
 62
     7
100
AcDbLine
 10
-1143.90094738602
 20
30.56141494573951
 30
0.0
 11
-856.9009473860199
 21
30.56141494573951
 31
0.0
  0
LINE
  5
5B
330
48
100
AcDbEntity
  8
1
  6
Continuous
 62
     7
100
AcDbLine
 10
-856.9009473860199
 20
30.56141494573951
 30
0.0
 11
-856.9009473860199
 21
214.5614149457396
 31
0.0
  0
LINE
  5
5C
330
48
100
AcDbEntity
  8
1
  6
Continuous
 62
     7
100
AcDbLine
 10
-856.9009473860199
 20
214.5614149457396
 30
0.0
 11
-1143.90094738602
 21
214.5614149457396
 31
0.0
  0
LINE
  5
5D
102
{ACAD_REACTORS
330
AA
102
}
330
48
100
AcDbEntity
  8
1
  6
Continuous
 62
     7
100
AcDbLine
 10
-867.8913133639439
 20
35.63891478557214
 30
0.0
 11
-867.8913133639439
 21
40.48391510590689
 31
0.0
  0
LINE
  5
5E
102
{ACAD_REACTORS
330
A7
102
}
330
48
100
AcDbEntity
  8
1
  6
Continuous
 62
     7
100
AcDbLine
 10
-869.224646697277
 20
38.06141494573951
 30
0.0
 11
-869.224646697277
 21
39.79346575330835
 31
0.0
  0
LINE
  5
5F
102
{ACAD_REACTORS
330
A7
102
}
330
48
100
AcDbEntity
  8
1
  6
Continuous
 62
     7
100
AcDbLine
 10
-869.224646697277
 20
39.79346575330835
 30
0.0
 11
-870.0803091299799
 21
38.31141494573951
 31
0.0
  0
LINE
  5
60
102
{ACAD_REACTORS
330
A7
102
}
330
48
100
AcDbEntity
  8
1
  6
Continuous
 62
     7
100
AcDbLine
 10
-870.3689842645749
 20
38.31141494573951
 30
0.0
 11
-871.224646697277
 21
39.79346575330835
 31
0.0
  0
LINE
  5
61
102
{ACAD_REACTORS
330
A7
102
}
330
48
100
AcDbEntity
  8
1
  6
Continuous
 62
     7
100
AcDbLine
 10
-871.224646697277
 20
39.79346575330835
 30
0.0
 11
-871.224646697277
 21
38.06141494573951
 31
0.0
  0
LINE
  5
62
330
48
100
AcDbEntity
  8
1
  6
Continuous
 62
     7
100
AcDbLine
 10
-878.641081972419
 20
38.20577921008085
 30
0.0
 11
-870.224646697277
 21
43.06141494573951
 31
0.0
  0
LINE
  5
63
330
48
100
AcDbEntity
  8
1
  6
Continuous
 62
     7
100
AcDbLine
 10
-870.224646697277
 20
43.06141494573951
 30
0.0
 11
-861.8082114221361
 21
38.20577921008085
 31
0.0
  0
LINE
  5
64
330
48
100
AcDbEntity
  8
1
  6
Continuous
 62
     7
100
AcDbLine
 10
-861.8082114221361
 20
37.91705068139807
 30
0.0
 11
-870.224646697277
 21
33.06141494573951
 31
0.0
  0
LINE
  5
65
330
48
100
AcDbEntity
  8
1
  6
Continuous
 62
     7
100
AcDbLine
 10
-870.224646697277
 20
33.06141494573951
 30
0.0
 11
-878.641081972419
 21
37.91705068139807
 31
0.0
  0
LINE
  5
66
102
{ACAD_REACTORS
330
A7
102
}
330
48
100
AcDbEntity
  8
1
  6
Continuous
 62
     7
100
AcDbLine
 10
-871.8913133639439
 20
38.06141494573951
 30
0.0
 11
-871.8913133639439
 21
41.29263225777409
 31
0.0
  0
LINE
  5
67
102
{ACAD_REACTORS
330
A7
102
}
330
48
100
AcDbEntity
  8
1
  6
Continuous
 62
     7
100
AcDbLine
 10
-871.396879680321
 20
41.4251153640118
 30
0.0
 11
-870.224646697277
 21
39.39474827907277
 31
0.0
  0
LINE
  5
68
102
{ACAD_REACTORS
330
A7
102
}
330
48
100
AcDbEntity
  8
1
  6
Continuous
 62
     7
100
AcDbLine
 10
-871.8913133639439
 20
38.06141494573951
 30
0.0
 11
-871.8913133639439
 21
36.40900001837242
 31
0.0
  0
LINE
  5
69
102
{ACAD_REACTORS
330
A7
102
}
330
48
100
AcDbEntity
  8
1
  6
Continuous
 62
     7
100
AcDbLine
 10
-871.224646697277
 20
36.40900001837242
 30
0.0
 11
-871.224646697277
 21
38.06141494573951
 31
0.0
  0
LINE
  5
6A
102
{ACAD_REACTORS
330
A7
102
}
330
48
100
AcDbEntity
  8
1
  6
Continuous
 62
     7
100
AcDbLine
 10
-869.224646697277
 20
38.06141494573951
 30
0.0
 11
-869.224646697277
 21
34.86968401634131
 31
0.0
  0
LINE
  5
6B
102
{ACAD_REACTORS
330
A7
102
}
330
48
100
AcDbEntity
  8
1
  6
Continuous
 62
     7
100
AcDbLine
 10
-868.5579800306109
 20
34.86968401634131
 30
0.0
 11
-868.5579800306109
 21
41.29263225777409
 31
0.0
  0
LINE
  5
6C
102
{ACAD_REACTORS
330
A7
102
}
330
48
100
AcDbEntity
  8
1
  6
Continuous
 62
     7
100
AcDbLine
 10
-869.052413714234
 20
41.4251153640118
 30
0.0
 11
-870.224646697277
 21
39.39474827907277
 31
0.0
  0
LINE
  5
6D
102
{ACAD_REACTORS
330
A8
102
}
330
48
100
AcDbEntity
  8
1
  6
Continuous
 62
     7
100
AcDbLine
 10
-873.224646697277
 20
35.8314360937721
 30
0.0
 11
-873.224646697277
 21
40.48391510590689
 31
0.0
  0
LINE
  5
6E
102
{ACAD_REACTORS
330
A8
102
}
330
48
100
AcDbEntity
  8
1
  6
Continuous
 62
     7
100
AcDbLine
 10
-872.5579800306109
 20
40.48391510590689
 30
0.0
 11
-872.5579800306109
 21
35.83143609377221
 31
0.0
  0
LINE
  5
6F
102
{ACAD_REACTORS
330
A8
102
}
330
48
100
AcDbEntity
  8
1
  6
Continuous
 62
     7
100
AcDbLine
 10
-872.5579800306109
 20
35.83143609377221
 30
0.0
 11
-870.3914058794469
 21
34.58148946810111
 31
0.0
  0
LINE
  5
70
102
{ACAD_REACTORS
330
A8
102
}
330
48
100
AcDbEntity
  8
1
  6
Continuous
 62
     7
100
AcDbLine
 10
-870.724554181774
 20
34.00403241073532
 30
0.0
 11
-872.8911283329369
 21
35.25397903640642
 31
0.0
  0
LINE
  5
71
102
{ACAD_REACTORS
330
A9
102
}
330
48
100
AcDbEntity
  8
1
  6
Continuous
 62
     7
100
AcDbLine
 10
-873.8913133639439
 20
39.71468433667617
 30
0.0
 11
-873.8913133639439
 21
36.60066686300281
 31
0.0
  0
LINE
  5
72
102
{ACAD_REACTORS
330
A9
102
}
330
48
100
AcDbEntity
  8
1
  6
Continuous
 62
     7
100
AcDbLine
 10
-873.8913133639439
 20
36.60066686300281
 30
0.0
 11
-873.8913133639439
 21
36.40814555480274
 31
0.0
  0
LINE
  5
73
102
{ACAD_REACTORS
330
A9
102
}
330
48
100
AcDbEntity
  8
1
  6
Continuous
 62
     7
100
AcDbLine
 10
-874.5579800306109
 20
36.40814555480274
 30
0.0
 11
-874.5579800306109
 21
39.71468433667617
 31
0.0
  0
LINE
  5
74
102
{ACAD_REACTORS
330
AA
102
}
330
48
100
AcDbEntity
  8
1
  6
Continuous
 62
     7
100
AcDbLine
 10
-867.3914058794469
 20
40.77264363458978
 30
0.0
 11
-866.0580725461141
 21
40.00341286535895
 31
0.0
  0
LINE
  5
75
102
{ACAD_REACTORS
330
AA
102
}
330
48
100
AcDbEntity
  8
1
  6
Continuous
 62
     7
100
AcDbLine
 10
-866.3912208484401
 20
39.42595580799328
 30
0.0
 11
-867.224646697277
 21
39.90677841309146
 31
0.0
  0
LINE
  5
76
102
{ACAD_REACTORS
330
AA
102
}
330
48
100
AcDbEntity
  8
1
  6
Continuous
 62
     7
100
AcDbLine
 10
-867.224646697277
 20
39.90677841309146
 30
0.0
 11
-867.224646697277
 21
38.39474827907277
 31
0.0
  0
LINE
  5
77
102
{ACAD_REACTORS
330
AA
102
}
330
48
100
AcDbEntity
  8
1
  6
Continuous
 62
     7
100
AcDbLine
 10
-867.224646697277
 20
38.39474827907277
 30
0.0
 11
-866.224646697277
 21
38.39474827907277
 31
0.0
  0
LINE
  5
78
102
{ACAD_REACTORS
330
AA
102
}
330
48
100
AcDbEntity
  8
1
  6
Continuous
 62
     7
100
AcDbLine
 10
-866.224646697277
 20
37.72808161240614
 30
0.0
 11
-867.224646697277
 21
37.72808161240614
 31
0.0
  0
LINE
  5
79
102
{ACAD_REACTORS
330
AA
102
}
330
48
100
AcDbEntity
  8
1
  6
Continuous
 62
     7
100
AcDbLine
 10
-867.224646697277
 20
37.72808161240614
 30
0.0
 11
-867.224646697277
 21
36.21605147838746
 31
0.0
  0
LINE
  5
7A
102
{ACAD_REACTORS
330
AA
102
}
330
48
100
AcDbEntity
  8
1
  6
Continuous
 62
     7
100
AcDbLine
 10
-867.224646697277
 20
36.21605147838746
 30
0.0
 11
-866.3912208484401
 21
36.69687408348575
 31
0.0
  0
LINE
  5
7B
102
{ACAD_REACTORS
330
AA
102
}
330
48
100
AcDbEntity
  8
1
  6
Continuous
 62
     7
100
AcDbLine
 10
-866.0580725461141
 20
36.11941702611985
 30
0.0
 11
-867.3914058794469
 21
35.35018625688925
 31
0.0
  0
LINE
  5
7C
330
48
100
AcDbEntity
  8
1
  6
Continuous
 62
     7
100
AcDbLine
 10
-1040.90094738602
 20
50.56141494573951
 30
0.0
 11
-856.9009473860199
 21
50.56141494573951
 31
0.0
  0
LINE
  5
7D
330
48
100
AcDbEntity
  8
1
  6
Continuous
 62
     7
100
AcDbLine
 10
-1033.90094738602
 20
45.56141494573951
 30
0.0
 11
-1033.90094738602
 21
50.56141494573951
 31
0.0
  0
LINE
  5
7E
330
48
100
AcDbEntity
  8
1
  6
Continuous
 62
     7
100
AcDbLine
 10
-1015.90094738602
 20
45.56141494573951
 30
0.0
 11
-1015.90094738602
 21
50.56141494573951
 31
0.0
  0
LINE
  5
7F
330
48
100
AcDbEntity
  8
1
  6
Continuous
 62
     7
100
AcDbLine
 10
-1040.90094738602
 20
55.56141494573951
 30
0.0
 11
-856.9009473860199
 21
55.56141494573951
 31
0.0
  0
LINE
  5
80
330
48
100
AcDbEntity
  8
1
  6
Continuous
 62
     7
100
AcDbLine
 10
-1033.90094738602
 20
50.56141494573951
 30
0.0
 11
-1033.90094738602
 21
55.56141494573951
 31
0.0
  0
LINE
  5
81
330
48
100
AcDbEntity
  8
1
  6
Continuous
 62
     7
100
AcDbLine
 10
-1015.90094738602
 20
50.56141494573951
 30
0.0
 11
-1015.90094738602
 21
55.56141494573951
 31
0.0
  0
LINE
  5
82
330
48
100
AcDbEntity
  8
1
  6
Continuous
 62
     7
100
AcDbLine
 10
-1040.90094738602
 20
60.56141494573951
 30
0.0
 11
-856.9009473860199
 21
60.56141494573951
 31
0.0
  0
LINE
  5
83
330
48
100
AcDbEntity
  8
1
  6
Continuous
 62
     7
100
AcDbLine
 10
-1033.90094738602
 20
55.56141494573951
 30
0.0
 11
-1033.90094738602
 21
60.56141494573951
 31
0.0
  0
LINE
  5
84
330
48
100
AcDbEntity
  8
1
  6
Continuous
 62
     7
100
AcDbLine
 10
-1015.90094738602
 20
55.56141494573951
 30
0.0
 11
-1015.90094738602
 21
60.56141494573951
 31
0.0
  0
LINE
  5
85
330
48
100
AcDbEntity
  8
1
  6
Continuous
 62
     7
100
AcDbLine
 10
-1040.90094738602
 20
65.56141494573951
 30
0.0
 11
-856.9009473860199
 21
65.56141494573951
 31
0.0
  0
LINE
  5
86
330
48
100
AcDbEntity
  8
1
  6
Continuous
 62
     7
100
AcDbLine
 10
-1033.90094738602
 20
60.56141494573951
 30
0.0
 11
-1033.90094738602
 21
65.56141494573951
 31
0.0
  0
LINE
  5
87
330
48
100
AcDbEntity
  8
1
  6
Continuous
 62
     7
100
AcDbLine
 10
-1015.90094738602
 20
60.56141494573951
 30
0.0
 11
-1015.90094738602
 21
65.56141494573951
 31
0.0
  0
LINE
  5
88
330
48
100
AcDbEntity
  8
1
  6
Continuous
 62
     7
100
AcDbLine
 10
-1143.90094738602
 20
214.5614149457396
 30
0.0
 11
-1143.90094738602
 21
30.56141494573951
 31
0.0
  0
LINE
  5
89
330
48
100
AcDbEntity
  8
1
  6
Continuous
 62
     7
100
AcDbLine
 10
-1040.90094738602
 20
45.56141494573951
 30
0.0
 11
-856.9009473860199
 21
45.56141494573951
 31
0.0
  0
LINE
  5
8A
330
48
100
AcDbEntity
  8
1
  6
Continuous
 62
     7
100
AcDbLine
 10
-1040.90094738602
 20
30.5614149457394
 30
0.0
 11
-1040.90094738602
 21
65.56141494573951
 31
0.0
  0
ARC
  5
8B
102
{ACAD_REACTORS
330
A7
102
}
330
48
100
AcDbEntity
  8
1
  6
Continuous
 62
     7
100
AcDbCircle
 10
-871.626347151469
 20
41.29263225777409
 30
0.0
 40
0.264966212475135
100
AcDbArc
 50
30.00000000003666
 51
180.0
  0
ARC
  5
8C
102
{ACAD_REACTORS
330
A7
102
}
330
48
100
AcDbEntity
  8
1
  6
Continuous
 62
     7
100
AcDbCircle
 10
-871.5579800306109
 20
36.40900001837242
 30
0.0
 40
0.3333333333330302
100
AcDbArc
 50
180.0
 51
0.0
  0
ARC
  5
8D
102
{ACAD_REACTORS
330
A7
102
}
330
48
100
AcDbEntity
  8
1
  6
Continuous
 62
     7
100
AcDbCircle
 10
-868.8913133639439
 20
34.86968401634131
 30
0.0
 40
0.3333333333330302
100
AcDbArc
 50
180.0
 51
0.0
  0
ARC
  5
8E
102
{ACAD_REACTORS
330
A7
102
}
330
48
100
AcDbEntity
  8
1
  6
Continuous
 62
     7
100
AcDbCircle
 10
-868.8229462430859
 20
41.29263225777409
 30
0.0
 40
0.2649662124749739
100
AcDbArc
 50
0.0
 51
149.9999999999879
  0
ARC
  5
8F
102
{ACAD_REACTORS
330
A8
102
}
330
48
100
AcDbEntity
  8
1
  6
Continuous
 62
     7
100
AcDbCircle
 10
-872.8913133639439
 20
40.48391510590689
 30
0.0
 40
0.3333333333330302
100
AcDbArc
 50
0.0
 51
180.0
  0
ARC
  5
90
102
{ACAD_REACTORS
330
A8
102
}
330
48
100
AcDbEntity
  8
1
  6
Continuous
 62
     7
100
AcDbCircle
 10
-870.5579800306109
 20
34.29276093941822
 30
0.0
 40
0.3333333333333202
100
AcDbArc
 50
240.0183606311669
 51
60.01836063103026
  0
ARC
  5
91
102
{ACAD_REACTORS
330
A9
102
}
330
48
100
AcDbEntity
  8
1
  6
Continuous
 62
     7
100
AcDbCircle
 10
-874.224646697277
 20
39.71468433667617
 30
0.0
 40
0.3333333333330302
100
AcDbArc
 50
0.0
 51
180.0
  0
ARC
  5
92
102
{ACAD_REACTORS
330
A9
102
}
330
48
100
AcDbEntity
  8
1
  6
Continuous
 62
     7
100
AcDbCircle
 10
-874.224646697277
 20
36.40814555480274
 30
0.0
 40
0.3333333333339397
100
AcDbArc
 50
180.0
 51
0.0
  0
ARC
  5
93
102
{ACAD_REACTORS
330
AA
102
}
330
48
100
AcDbEntity
  8
1
  6
Continuous
 62
     7
100
AcDbCircle
 10
-866.224646697277
 20
39.71468433667617
 30
0.0
 40
0.3333333333333079
100
AcDbArc
 50
240.0183606311657
 51
60.01836063119038
  0
ARC
  5
94
102
{ACAD_REACTORS
330
AA
102
}
330
48
100
AcDbEntity
  8
1
  6
Continuous
 62
     7
100
AcDbCircle
 10
-866.224646697277
 20
38.06141494573951
 30
0.0
 40
0.3333333333333641
100
AcDbArc
 50
270.0
 51
90.0
  0
ARC
  5
95
102
{ACAD_REACTORS
330
AA
102
}
330
48
100
AcDbEntity
  8
1
  6
Continuous
 62
     7
100
AcDbCircle
 10
-866.224646697277
 20
36.40814555480274
 30
0.0
 40
0.3333333333332005
100
AcDbArc
 50
299.9816393687998
 51
119.9816393688239
  0
ARC
  5
96
102
{ACAD_REACTORS
330
A7
102
}
330
48
100
AcDbEntity
  8
1
  6
Continuous
 62
     7
100
AcDbCircle
 10
-870.224646697277
 20
38.39474827907277
 30
0.0
 40
0.1666666666671054
100
AcDbArc
 50
209.9999999998856
 51
329.999999999958
  0
ARC
  5
97
102
{ACAD_REACTORS
330
A8
102
}
330
48
100
AcDbEntity
  8
1
  6
Continuous
 62
     7
100
AcDbCircle
 10
-872.5579800306109
 20
35.83143609377221
 30
0.0
 40
0.6666666666660603
100
AcDbArc
 50
180.0000000000097
 51
240.0183606311832
  0
ARC
  5
98
330
48
100
AcDbEntity
  8
1
  6
Continuous
 62
     7
100
AcDbCircle
 10
-878.5577948968371
 20
38.06141494573951
 30
0.0
 40
0.1666666666667352
100
AcDbArc
 50
119.9816393689536
 51
240.0183606310635
  0
ARC
  5
99
330
48
100
AcDbEntity
  8
1
  6
Continuous
 62
     7
100
AcDbCircle
 10
-861.8914984977171
 20
38.06141494573951
 30
0.0
 40
0.1666666666663668
100
AcDbArc
 50
299.9816393686656
 51
60.01836063131725
  0
ARC
  5
9A
102
{ACAD_REACTORS
330
AA
102
}
330
48
100
AcDbEntity
  8
1
  6
Continuous
 62
     7
100
AcDbCircle
 10
-867.5579800306109
 20
40.48391510590689
 30
0.0
 40
0.3333333333337624
100
AcDbArc
 50
60.01836063103026
 51
180.0
  0
ARC
  5
9B
102
{ACAD_REACTORS
330
AA
102
}
330
48
100
AcDbEntity
  8
1
  6
Continuous
 62
     7
100
AcDbCircle
 10
-867.5579800306109
 20
35.63891478557214
 30
0.0
 40
0.3333333333330302
100
AcDbArc
 50
180.0
 51
299.9816393689698
  0
MTEXT
  5
9D
330
48
100
AcDbEntity
  8
1
 62
     7
100
AcDbMText
 10
-1029.30094738602
 20
33.06141494573939
 30
0.0
 40
3.0
 41
0.0
 71
     4
 72
     1
  1
Pezzimenti
  7
CONVERTER_11
 73
     1
 44
1.32052821128451
  0
MTEXT
  5
9E
330
48
100
AcDbEntity
  8
1
 62
     7
100
AcDbMText
 10
-1039.90094738602
 20
33.06141494573939
 30
0.0
 40
3.0
 41
0.0
 71
     4
 72
     1
  1
Sign.
  7
CONVERTER_11
 73
     1
 44
1.32052821128451
  0
MTEXT
  5
9F
330
48
100
AcDbEntity
  8
1
 62
     7
100
AcDbMText
 10
-1029.30094738602
 20
38.06141494573939
 30
0.0
 40
3.0
 41
0.0
 71
     4
 72
     1
  1
20/06/14
  7
CONVERTER_11
 73
     1
 44
1.32052821128451
  0
MTEXT
  5
A0
330
48
100
AcDbEntity
  8
1
 62
     7
100
AcDbMText
 10
-1039.90094738602
 20
38.06141494573939
 30
0.0
 40
3.0
 41
0.0
 71
     4
 72
     1
  1
Date
  7
CONVERTER_11
 73
     1
 44
1.32052821128451
  0
MTEXT
  5
A2
330
48
100
AcDbEntity
  8
1
 62
     7
100
AcDbMText
 10
-1025.90094738602
 20
43.06141494573946
 30
0.0
 40
2.5
 41
0.0
 71
     5
 72
     1
  1
dimensions in mm
  7
CONVERTER_12
 73
     1
 44
0.60024009603842
  0
MTEXT
  5
A3
330
48
100
AcDbEntity
  8
1
 62
     7
100
AcDbMText
 10
-997.40094738602
 20
219.5614149457397
 30
0.0
 40
4.0
 41
0.0
 71
     5
 72
     1
  1
Diritti riservati      All rights reserved
  7
CONVERTER_11
 73
     1
 44
1.32052821128451
  0
MTEXT
  5
A4
330
48
100
AcDbEntity
  8
1
 62
     7
100
AcDbMText
 10
-1004.624646697277
 20
38.06141494573951
 30
0.0
 40
4.5
 41
0.0
 71
     4
 72
     1
  1
MAPN 06 L32\PSurface mounting housing, 1 lever, M32 - LS TYPE
  7
CONVERTER_11
 73
     1
 44
0.90036014405762
  0
MTEXT
  5
A5
330
48
100
AcDbEntity
  8
1
 62
     7
100
AcDbMText
 10
-892.224646697277
 20
41.82205436649549
 30
0.0
 40
3.0
 41
0.0
 71
     5
 72
     1
  1
Scale
  7
CONVERTER_11
 73
     1
 44
1.32052821128451
  0
MTEXT
  5
A6
330
48
100
AcDbEntity
  8
1
 62
     7
100
AcDbMText
 10
-892.224646697277
 20
35.62205436649556
 30
0.0
 40
4.5
 41
0.0
 71
     5
 72
     1
  1
1:1
  7
CONVERTER_11
 73
     1
 44
1.32052821128451
  0
HATCH
  5
A7
330
48
100
AcDbEntity
  8
1
  6
Continuous
 62
     7
100
AcDbHatch
 10
0.0
 20
0.0
 30
0.0
210
0.0
220
0.0
230
1.0
  2
SOLID
 70
     1
 71
     1
 91
        1
 92
        1
 93
       16
 72
     2
 10
-871.626347151469
 20
41.29263225777409
 40
0.264966212475135
 50
30.00000000003666
 51
180.0
 73
     1
 72
     1
 10
-871.8913133639439
 20
41.29263225777409
 11
-871.8913133639439
 21
38.06141494573951
 72
     1
 10
-871.8913133639439
 20
38.06141494573951
 11
-871.8913133639439
 21
36.40900001837242
 72
     2
 10
-871.5579800306109
 20
36.40900001837242
 40
0.3333333333330302
 50
180.0
 51
360.0
 73
     1
 72
     1
 10
-871.224646697277
 20
36.40900001837242
 11
-871.224646697277
 21
38.06141494573951
 72
     1
 10
-871.224646697277
 20
38.06141494573951
 11
-871.224646697277
 21
39.79346575330835
 72
     1
 10
-871.224646697277
 20
39.79346575330835
 11
-870.3689842645749
 21
38.31141494573951
 72
     2
 10
-870.224646697277
 20
38.39474827907277
 40
0.1666666666671054
 50
209.9999999998856
 51
329.999999999958
 73
     1
 72
     1
 10
-870.0803091299799
 20
38.31141494573951
 11
-869.224646697277
 21
39.79346575330835
 72
     1
 10
-869.224646697277
 20
39.79346575330835
 11
-869.224646697277
 21
38.06141494573951
 72
     1
 10
-869.224646697277
 20
38.06141494573951
 11
-869.224646697277
 21
34.86968401634131
 72
     2
 10
-868.8913133639439
 20
34.86968401634131
 40
0.3333333333330302
 50
180.0
 51
360.0
 73
     1
 72
     1
 10
-868.5579800306109
 20
34.86968401634131
 11
-868.5579800306109
 21
41.29263225777409
 72
     2
 10
-868.8229462430859
 20
41.29263225777409
 40
0.2649662124749739
 50
0.0
 51
149.9999999999879
 73
     1
 72
     1
 10
-869.052413714234
 20
41.4251153640118
 11
-870.224646697277
 21
39.39474827907277
 72
     1
 10
-870.224646697277
 20
39.39474827907277
 11
-871.396879680321
 21
41.4251153640118
 97
       16
330
6C
330
8E
330
6B
330
8D
330
6A
330
5E
330
5F
330
96
330
60
330
61
330
69
330
8C
330
68
330
66
330
8B
330
67
 75
     0
 76
     1
 98
        1
 10
0.0
 20
0.0
  0
HATCH
  5
A8
330
48
100
AcDbEntity
  8
1
  6
Continuous
 62
     7
100
AcDbHatch
 10
0.0
 20
0.0
 30
0.0
210
0.0
220
0.0
230
1.0
  2
SOLID
 70
     1
 71
     1
 91
        1
 92
        1
 93
        7
 72
     1
 10
-872.5579800306109
 20
40.48391510590689
 11
-872.5579800306109
 21
35.83143609377221
 72
     1
 10
-872.5579800306109
 20
35.83143609377221
 11
-870.3914058794469
 21
34.58148946810111
 72
     2
 10
-870.5579800306109
 20
34.29276093941822
 40
0.3333333333333202
 50
299.9816393689698
 51
479.9816393688332
 73
     0
 72
     1
 10
-870.724554181774
 20
34.00403241073532
 11
-872.8911283329369
 21
35.25397903640642
 72
     2
 10
-872.5579800306109
 20
35.83143609377221
 40
0.6666666666660603
 50
119.9816393688168
 51
179.9999999999902
 73
     0
 72
     1
 10
-873.224646697277
 20
35.8314360937721
 11
-873.224646697277
 21
40.48391510590689
 72
     2
 10
-872.8913133639439
 20
40.48391510590689
 40
0.3333333333330302
 50
180.0
 51
360.0
 73
     0
 97
        7
330
6E
330
6F
330
90
330
70
330
97
330
6D
330
8F
 75
     0
 76
     1
 98
        1
 10
0.0
 20
0.0
  0
HATCH
  5
A9
330
48
100
AcDbEntity
  8
1
  6
Continuous
 62
     7
100
AcDbHatch
 10
0.0
 20
0.0
 30
0.0
210
0.0
220
0.0
230
1.0
  2
SOLID
 70
     1
 71
     1
 91
        1
 92
        1
 93
        5
 72
     1
 10
-873.8913133639439
 20
39.71468433667617
 11
-873.8913133639439
 21
36.60066686300281
 72
     1
 10
-873.8913133639439
 20
36.60066686300281
 11
-873.8913133639439
 21
36.40814555480274
 72
     2
 10
-874.224646697277
 20
36.40814555480274
 40
0.3333333333339397
 50
0.0
 51
180.0
 73
     0
 72
     1
 10
-874.5579800306109
 20
36.40814555480274
 11
-874.5579800306109
 21
39.71468433667617
 72
     2
 10
-874.224646697277
 20
39.71468433667617
 40
0.3333333333330302
 50
180.0
 51
360.0
 73
     0
 97
        5
330
71
330
72
330
92
330
73
330
91
 75
     0
 76
     1
 98
        1
 10
0.0
 20
0.0
  0
HATCH
  5
AA
330
48
100
AcDbEntity
  8
1
  6
Continuous
 62
     7
100
AcDbHatch
 10
0.0
 20
0.0
 30
0.0
210
0.0
220
0.0
230
1.0
  2
SOLID
 70
     1
 71
     1
 91
        1
 92
        1
 93
       14
 72
     1
 10
-866.3912208484401
 20
39.42595580799328
 11
-867.224646697277
 21
39.90677841309146
 72
     1
 10
-867.224646697277
 20
39.90677841309146
 11
-867.224646697277
 21
38.39474827907277
 72
     1
 10
-867.224646697277
 20
38.39474827907277
 11
-866.224646697277
 21
38.39474827907277
 72
     2
 10
-866.224646697277
 20
38.06141494573951
 40
0.3333333333333641
 50
270.0
 51
450.0
 73
     0
 72
     1
 10
-866.224646697277
 20
37.72808161240614
 11
-867.224646697277
 21
37.72808161240614
 72
     1
 10
-867.224646697277
 20
37.72808161240614
 11
-867.224646697277
 21
36.21605147838746
 72
     1
 10
-867.224646697277
 20
36.21605147838746
 11
-866.3912208484401
 21
36.69687408348575
 72
     2
 10
-866.224646697277
 20
36.40814555480274
 40
0.3333333333332005
 50
240.0183606311761
 51
420.0183606312001
 73
     0
 72
     1
 10
-866.0580725461141
 20
36.11941702611985
 11
-867.3914058794469
 21
35.35018625688925
 72
     2
 10
-867.5579800306109
 20
35.63891478557214
 40
0.3333333333330302
 50
60.01836063103026
 51
180.0
 73
     0
 72
     1
 10
-867.8913133639439
 20
35.63891478557214
 11
-867.8913133639439
 21
40.48391510590689
 72
     2
 10
-867.5579800306109
 20
40.48391510590689
 40
0.3333333333337624
 50
180.0
 51
299.9816393689698
 73
     0
 72
     1
 10
-867.3914058794469
 20
40.77264363458978
 11
-866.0580725461141
 21
40.00341286535895
 72
     2
 10
-866.224646697277
 20
39.71468433667617
 40
0.3333333333333079
 50
299.9816393688097
 51
479.9816393688344
 73
     0
 97
       14
330
74
330
9A
330
5D
330
9B
330
7B
330
95
330
7A
330
79
330
78
330
94
330
77
330
76
330
75
330
93
 75
     0
 76
     1
 98
        1
 10
0.0
 20
0.0
  0
ENDBLK
  5
4A
330
48
100
AcDbEntity
  8
0
100
AcDbBlockEnd
  0
BLOCK
  5
4D
330
4B
100
AcDbEntity
  8
0
100
AcDbBlockBegin
  2
A4_oriz
 70
     0
 10
297.0000000000002
 20
0.0
 30
0.0
  3
A4_oriz
  1

  0
INSERT
  5
4C
330
4B
100
AcDbEntity
  8
1
100
AcDbBlockReference
  2
_formato_A4
 10
297.0000000000002
 20
0.0
 30
0.0
  0
ENDBLK
  5
4E
330
4B
100
AcDbEntity
  8
0
100
AcDbBlockEnd
  0
BLOCK
  5
2AE
330
2A7
100
AcDbEntity
  8
0
100
AcDbBlockBegin
  2
*D3
 70
     1
 10
0.0
 20
0.0
 30
0.0
  3
*D3
  1

  0
LINE
  5
2A8
330
2A7
100
AcDbEntity
  8
1
  6
Continuous
 62
     2
100
AcDbLine
 10
187.8499602710988
 20
175.25813205223
 30
0.0
 11
256.9335582023878
 21
175.25813205223
 31
0.0
  0
LINE
  5
2A9
330
2A7
100
AcDbEntity
  8
1
  6
Continuous
 62
     2
100
AcDbLine
 10
256.9335582023878
 20
138.6749062951809
 30
0.0
 11
256.9335582023878
 21
176.25813205223
 31
0.0
  0
LINE
  5
2AA
330
2A7
100
AcDbEntity
  8
1
  6
Continuous
 62
     2
100
AcDbLine
 10
187.8499602710988
 20
78.67490629517759
 30
0.0
 11
187.8499602710988
 21
176.25813205223
 31
0.0
  0
SOLID
  5
2AB
330
2A7
100
AcDbEntity
  8
1
 62
     2
100
AcDbTrace
 10
190.8499602710988
 20
175.6530895449922
 30
0.0
 11
190.8499602710988
 21
174.8631745594678
 31
0.0
 12
187.8499602710988
 22
175.25813205223
 32
0.0
 13
187.8499602710988
 23
175.25813205223
 33
0.0
  0
SOLID
  5
2AC
330
2A7
100
AcDbEntity
  8
1
 62
     2
100
AcDbTrace
 10
253.9335582023878
 20
174.8631745594678
 30
0.0
 11
253.9335582023878
 21
175.6530895449922
 31
0.0
 12
256.9335582023878
 22
175.25813205223
 32
0.0
 13
256.9335582023878
 23
175.25813205223
 33
0.0
  0
MTEXT
  5
2AD
330
2A7
100
AcDbEntity
  8
1
 62
     4
100
AcDbMText
 10
220.1417592367434
 20
177.25813205223
 30
0.0
 40
3.0
 41
0.0
 71
     7
 72
     1
  1
70
  7
CONVERTER_13
 11
0.9999999999970619
 21
2.424068405545306E-6
 31
0.0
 73
     1
 44
0.60024009603842
  0
ENDBLK
  5
2AF
330
2A7
100
AcDbEntity
  8
0
100
AcDbBlockEnd
  0
BLOCK
  5
2B9
330
2B2
100
AcDbEntity
  8
0
100
AcDbBlockBegin
  2
*D4
 70
     1
 10
0.0
 20
0.0
 30
0.0
  3
*D4
  1

  0
LINE
  5
2B3
330
2B2
100
AcDbEntity
  8
1
  6
Continuous
 62
     2
100
AcDbLine
 10
119.9499602645779
 20
175.25813205223
 30
0.0
 11
44.9499602645779
 21
175.25813205223
 31
0.0
  0
LINE
  5
2B4
330
2B2
100
AcDbEntity
  8
1
  6
Continuous
 62
     2
100
AcDbLine
 10
44.9499602645779
 20
163.6749062951804
 30
0.0
 11
44.9499602645779
 21
176.25813205223
 31
0.0
  0
LINE
  5
2B5
330
2B2
100
AcDbEntity
  8
1
  6
Continuous
 62
     2
100
AcDbLine
 10
119.9499602645779
 20
163.6749062951802
 30
0.0
 11
119.9499602645779
 21
176.25813205223
 31
0.0
  0
SOLID
  5
2B6
330
2B2
100
AcDbEntity
  8
1
 62
     2
100
AcDbTrace
 10
116.9499602645779
 20
174.8631745594678
 30
0.0
 11
116.9499602645779
 21
175.6530895449922
 31
0.0
 12
119.9499602645779
 22
175.25813205223
 32
0.0
 13
119.9499602645779
 23
175.25813205223
 33
0.0
  0
SOLID
  5
2B7
330
2B2
100
AcDbEntity
  8
1
 62
     2
100
AcDbTrace
 10
47.9499602645779
 20
175.6530895449922
 30
0.0
 11
47.9499602645779
 21
174.8631745594678
 31
0.0
 12
44.9499602645779
 22
175.25813205223
 32
0.0
 13
44.9499602645779
 23
175.25813205223
 33
0.0
  0
MTEXT
  5
2B8
330
2B2
100
AcDbEntity
  8
1
 62
     4
100
AcDbMText
 10
80.1999602645779
 20
177.25813205223
 30
0.0
 40
3.0
 41
0.0
 71
     7
 72
     1
  1
75
  7
CONVERTER_13
 11
0.9999999999970619
 21
2.424068405545306E-6
 31
0.0
 73
     1
 44
0.60024009603842
  0
ENDBLK
  5
2BA
330
2B2
100
AcDbEntity
  8
0
100
AcDbBlockEnd
  0
BLOCK
  5
2C4
330
2BD
100
AcDbEntity
  8
0
100
AcDbBlockBegin
  2
*D5
 70
     1
 10
0.0
 20
0.0
 30
0.0
  3
*D5
  1

  0
LINE
  5
2BE
330
2BD
100
AcDbEntity
  8
1
  6
Continuous
 62
     2
100
AcDbLine
 10
41.4499602645779
 20
51.141381205233
 30
0.0
 11
123.4499602645779
 21
51.141381205233
 31
0.0
  0
LINE
  5
2BF
330
2BD
100
AcDbEntity
  8
1
  6
Continuous
 62
     2
100
AcDbLine
 10
123.4499602645779
 20
73.6749062951839
 30
0.0
 11
123.4499602645779
 21
50.141381205233
 31
0.0
  0
LINE
  5
2C0
330
2BD
100
AcDbEntity
  8
1
  6
Continuous
 62
     2
100
AcDbLine
 10
41.4499602645779
 20
73.6749062951839
 30
0.0
 11
41.4499602645779
 21
50.141381205233
 31
0.0
  0
SOLID
  5
2C1
330
2BD
100
AcDbEntity
  8
1
 62
     2
100
AcDbTrace
 10
44.4499602645779
 20
51.53633869799519
 30
0.0
 11
44.4499602645779
 21
50.74642371247081
 31
0.0
 12
41.4499602645779
 22
51.141381205233
 32
0.0
 13
41.4499602645779
 23
51.141381205233
 33
0.0
  0
SOLID
  5
2C2
330
2BD
100
AcDbEntity
  8
1
 62
     2
100
AcDbTrace
 10
120.4499602645779
 20
50.74642371247081
 30
0.0
 11
120.4499602645779
 21
51.53633869799519
 31
0.0
 12
123.4499602645779
 22
51.141381205233
 32
0.0
 13
123.4499602645779
 23
51.141381205233
 33
0.0
  0
MTEXT
  5
2C3
330
2BD
100
AcDbEntity
  8
1
 62
     4
100
AcDbMText
 10
80.04996026457789
 20
53.141381205233
 30
0.0
 40
3.0
 41
0.0
 71
     7
 72
     1
  1
82
  7
CONVERTER_13
 11
0.9999999999970619
 21
2.424068405545306E-6
 31
0.0
 73
     1
 44
0.60024009603842
  0
ENDBLK
  5
2C5
330
2BD
100
AcDbEntity
  8
0
100
AcDbBlockEnd
  0
BLOCK
  5
2CF
330
2C8
100
AcDbEntity
  8
0
100
AcDbBlockBegin
  2
*D6
 70
     1
 10
0.0
 20
0.0
 30
0.0
  3
*D6
  1

  0
LINE
  5
2C9
330
2C8
100
AcDbEntity
  8
1
  6
Continuous
 62
     2
100
AcDbLine
 10
117.4499602645779
 20
59.62410409006701
 30
0.0
 11
47.4499602645779
 21
59.62410409006701
 31
0.0
  0
LINE
  5
2CA
330
2C8
100
AcDbEntity
  8
1
  6
Continuous
 62
     2
100
AcDbLine
 10
47.4499602645779
 20
66.50219377696293
 30
0.0
 11
47.4499602645779
 21
58.62410409006701
 31
0.0
  0
LINE
  5
2CB
330
2C8
100
AcDbEntity
  8
1
  6
Continuous
 62
     2
100
AcDbLine
 10
117.4499602645779
 20
66.30637621296722
 30
0.0
 11
117.4499602645779
 21
58.62410409006701
 31
0.0
  0
SOLID
  5
2CC
330
2C8
100
AcDbEntity
  8
1
 62
     2
100
AcDbTrace
 10
114.4499602645779
 20
59.22914659730482
 30
0.0
 11
114.4499602645779
 21
60.0190615828292
 31
0.0
 12
117.4499602645779
 22
59.62410409006701
 32
0.0
 13
117.4499602645779
 23
59.62410409006701
 33
0.0
  0
SOLID
  5
2CD
330
2C8
100
AcDbEntity
  8
1
 62
     2
100
AcDbTrace
 10
50.4499602645779
 20
60.0190615828292
 30
0.0
 11
50.4499602645779
 21
59.22914659730482
 31
0.0
 12
47.4499602645779
 22
59.62410409006701
 32
0.0
 13
47.4499602645779
 23
59.62410409006701
 33
0.0
  0
MTEXT
  5
2CE
330
2C8
100
AcDbEntity
  8
1
 62
     4
100
AcDbMText
 10
80.1999602645779
 20
61.62410409006701
 30
0.0
 40
3.0
 41
0.0
 71
     7
 72
     1
  1
70
  7
CONVERTER_13
 11
0.9999999999970619
 21
2.424068405545306E-6
 31
0.0
 73
     1
 44
0.60024009603842
  0
ENDBLK
  5
2D0
330
2C8
100
AcDbEntity
  8
0
100
AcDbBlockEnd
  0
BLOCK
  5
2DA
330
2D3
100
AcDbEntity
  8
0
100
AcDbBlockBegin
  2
*D7
 70
     1
 10
0.0
 20
0.0
 30
0.0
  3
*D7
  1

  0
LINE
  5
2D4
330
2D3
100
AcDbEntity
  8
1
  6
Continuous
 62
     2
100
AcDbLine
 10
238.8499602711
 20
59.62410409006701
 30
0.0
 11
193.8499602711
 21
59.62410409006701
 31
0.0
  0
LINE
  5
2D5
330
2D3
100
AcDbEntity
  8
1
  6
Continuous
 62
     2
100
AcDbLine
 10
193.8499602711
 20
70.37321477019286
 30
0.0
 11
193.8499602711
 21
58.62410409006701
 31
0.0
  0
LINE
  5
2D6
330
2D3
100
AcDbEntity
  8
1
  6
Continuous
 62
     2
100
AcDbLine
 10
238.8499602711
 20
70.72680311220579
 30
0.0
 11
238.8499602711
 21
58.62410409006701
 31
0.0
  0
SOLID
  5
2D7
330
2D3
100
AcDbEntity
  8
1
 62
     2
100
AcDbTrace
 10
235.8499602711
 20
59.22914659730482
 30
0.0
 11
235.8499602711
 21
60.0190615828292
 31
0.0
 12
238.8499602711
 22
59.62410409006701
 32
0.0
 13
238.8499602711
 23
59.62410409006701
 33
0.0
  0
SOLID
  5
2D8
330
2D3
100
AcDbEntity
  8
1
 62
     2
100
AcDbTrace
 10
196.8499602711
 20
60.0190615828292
 30
0.0
 11
196.8499602711
 21
59.22914659730482
 31
0.0
 12
193.8499602711
 22
59.62410409006701
 32
0.0
 13
193.8499602711
 23
59.62410409006701
 33
0.0
  0
MTEXT
  5
2D9
330
2D3
100
AcDbEntity
  8
1
 62
     4
100
AcDbMText
 10
214.0999602711
 20
61.62410409006701
 30
0.0
 40
3.0
 41
0.0
 71
     7
 72
     1
  1
45
  7
CONVERTER_13
 11
0.9999999999970619
 21
2.424068405545306E-6
 31
0.0
 73
     1
 44
0.60024009603842
  0
ENDBLK
  5
2DB
330
2D3
100
AcDbEntity
  8
0
100
AcDbBlockEnd
  0
BLOCK
  5
2E5
330
2DE
100
AcDbEntity
  8
0
100
AcDbBlockBegin
  2
*D8
 70
     1
 10
0.0
 20
0.0
 30
0.0
  3
*D8
  1

  0
LINE
  5
2DF
330
2DE
100
AcDbEntity
  8
1
  6
Continuous
 62
     2
100
AcDbLine
 10
244.8499602711
 20
51.141381205233
 30
0.0
 11
187.8499602710998
 21
51.141381205233
 31
0.0
  0
LINE
  5
2E0
330
2DE
100
AcDbEntity
  8
1
  6
Continuous
 62
     2
100
AcDbLine
 10
187.8499602710998
 20
73.67490629517762
 30
0.0
 11
187.8499602710998
 21
50.141381205233
 31
0.0
  0
LINE
  5
2E1
330
2DE
100
AcDbEntity
  8
1
  6
Continuous
 62
     2
100
AcDbLine
 10
244.8499602711
 20
73.67490629518412
 30
0.0
 11
244.8499602711
 21
50.141381205233
 31
0.0
  0
SOLID
  5
2E2
330
2DE
100
AcDbEntity
  8
1
 62
     2
100
AcDbTrace
 10
241.8499602711
 20
50.74642371247081
 30
0.0
 11
241.8499602711
 21
51.53633869799519
 31
0.0
 12
244.8499602711
 22
51.141381205233
 32
0.0
 13
244.8499602711
 23
51.141381205233
 33
0.0
  0
SOLID
  5
2E3
330
2DE
100
AcDbEntity
  8
1
 62
     2
100
AcDbTrace
 10
190.8499602710998
 20
51.53633869799519
 30
0.0
 11
190.8499602710998
 21
50.74642371247081
 31
0.0
 12
187.8499602710998
 22
51.141381205233
 32
0.0
 13
187.8499602710998
 23
51.141381205233
 33
0.0
  0
MTEXT
  5
2E4
330
2DE
100
AcDbEntity
  8
1
 62
     4
100
AcDbMText
 10
214.0999602711
 20
53.141381205233
 30
0.0
 40
3.0
 41
0.0
 71
     7
 72
     1
  1
57
  7
CONVERTER_13
 11
0.9999999999970619
 21
2.424068405545306E-6
 31
0.0
 73
     1
 44
0.60024009603842
  0
ENDBLK
  5
2E6
330
2DE
100
AcDbEntity
  8
0
100
AcDbBlockEnd
  0
BLOCK
  5
2F2
330
2E9
100
AcDbEntity
  8
0
100
AcDbBlockBegin
  2
*D9
 70
     1
 10
0.0
 20
0.0
 30
0.0
  3
*D9
  1

  0
LINE
  5
2EA
330
2E9
100
AcDbEntity
  8
1
  6
Continuous
 62
     2
100
AcDbLine
 10
254.8499602710991
 20
78.1749062951841
 30
0.0
 11
254.8499602710991
 21
86.40637460266643
 31
0.0
  0
LINE
  5
2EB
330
2E9
100
AcDbEntity
  8
1
  6
Continuous
 62
     2
100
AcDbLine
 10
254.8499602710991
 20
74.1749062951841
 30
0.0
 11
254.8499602710991
 21
78.1749062951841
 31
0.0
  0
LINE
  5
2EC
330
2E9
100
AcDbEntity
  8
1
  6
Continuous
 62
     2
100
AcDbLine
 10
254.8499602710991
 20
68.1749062951841
 30
0.0
 11
254.8499602710991
 21
74.1749062951841
 31
0.0
  0
LINE
  5
2ED
330
2E9
100
AcDbEntity
  8
1
  6
Continuous
 62
     2
100
AcDbLine
 10
245.3499602710995
 20
78.1749062951841
 30
0.0
 11
255.8499602710991
 21
78.1749062951841
 31
0.0
  0
LINE
  5
2EE
330
2E9
100
AcDbEntity
  8
1
  6
Continuous
 62
     2
100
AcDbLine
 10
245.3499602711
 20
74.1749062951841
 30
0.0
 11
255.8499602710991
 21
74.1749062951841
 31
0.0
  0
SOLID
  5
2EF
330
2E9
100
AcDbEntity
  8
1
 62
     2
100
AcDbTrace
 10
255.2449177638613
 20
71.1749062951841
 30
0.0
 11
254.4550027783369
 21
71.1749062951841
 31
0.0
 12
254.8499602710991
 22
74.1749062951841
 32
0.0
 13
254.8499602710991
 23
74.1749062951841
 33
0.0
  0
SOLID
  5
2F0
330
2E9
100
AcDbEntity
  8
1
 62
     2
100
AcDbTrace
 10
254.4550027783369
 20
81.1749062951841
 30
0.0
 11
255.2449177638613
 21
81.1749062951841
 31
0.0
 12
254.8499602710991
 22
78.1749062951841
 32
0.0
 13
254.8499602710991
 23
78.1749062951841
 33
0.0
  0
MTEXT
  5
2F1
330
2E9
100
AcDbEntity
  8
1
 62
     4
100
AcDbMText
 10
252.8499602710991
 20
84.60637460266642
 30
0.0
 40
3.0
 41
0.0
 71
     7
 72
     1
  1
4
  7
CONVERTER_13
 11
0.0
 21
1.0
 31
0.0
 73
     1
 44
0.60024009603842
  0
ENDBLK
  5
2F3
330
2E9
100
AcDbEntity
  8
0
100
AcDbBlockEnd
  0
BLOCK
  5
2FD
330
2F6
100
AcDbEntity
  8
0
100
AcDbBlockBegin
  2
*D10
 70
     1
 10
0.0
 20
0.0
 30
0.0
  3
*D10
  1

  0
LINE
  5
2F7
330
2F6
100
AcDbEntity
  8
1
  6
Continuous
 62
     2
100
AcDbLine
 10
176.8584667057001
 20
148.1749062951784
 30
0.0
 11
176.8584667057001
 21
74.17490629517759
 31
0.0
  0
LINE
  5
2F8
330
2F6
100
AcDbEntity
  8
1
  6
Continuous
 62
     2
100
AcDbLine
 10
187.3499602710997
 20
74.17490629517759
 30
0.0
 11
175.8584667057001
 21
74.17490629517759
 31
0.0
  0
LINE
  5
2F9
330
2F6
100
AcDbEntity
  8
1
  6
Continuous
 62
     2
100
AcDbLine
 10
194.3499602710911
 20
148.1749062951784
 30
0.0
 11
175.8584667057001
 21
148.1749062951784
 31
0.0
  0
SOLID
  5
2FA
330
2F6
100
AcDbEntity
  8
1
 62
     2
100
AcDbTrace
 10
177.2534241984623
 20
145.1749062951784
 30
0.0
 11
176.4635092129379
 21
145.1749062951784
 31
0.0
 12
176.8584667057001
 22
148.1749062951784
 32
0.0
 13
176.8584667057001
 23
148.1749062951784
 33
0.0
  0
SOLID
  5
2FB
330
2F6
100
AcDbEntity
  8
1
 62
     2
100
AcDbTrace
 10
176.4635092129379
 20
77.17490629517759
 30
0.0
 11
177.2534241984623
 21
77.17490629517759
 31
0.0
 12
176.8584667057001
 22
74.17490629517759
 32
0.0
 13
176.8584667057001
 23
74.17490629517759
 33
0.0
  0
MTEXT
  5
2FC
330
2F6
100
AcDbEntity
  8
1
 62
     4
100
AcDbMText
 10
174.8584667057001
 20
108.9249062951781
 30
0.0
 40
3.0
 41
0.0
 71
     7
 72
     1
  1
74
  7
CONVERTER_13
 11
0.0
 21
1.0
 31
0.0
 73
     1
 44
0.60024009603842
  0
ENDBLK
  5
2FE
330
2F6
100
AcDbEntity
  8
0
100
AcDbBlockEnd
  0
BLOCK
  5
308
330
301
100
AcDbEntity
  8
0
100
AcDbBlockBegin
  2
*D11
 70
     1
 10
0.0
 20
0.0
 30
0.0
  3
*D11
  1

  0
LINE
  5
302
330
301
100
AcDbEntity
  8
1
  6
Continuous
 62
     2
100
AcDbLine
 10
140.4
 20
80.9249062951809
 30
0.0
 11
140.4
 21
112.9249062951809
 31
0.0
  0
LINE
  5
303
330
301
100
AcDbEntity
  8
1
  6
Continuous
 62
     2
100
AcDbLine
 10
139.9
 20
112.9249062951809
 30
0.0
 11
139.4
 21
112.9249062951809
 31
0.0
  0
LINE
  5
304
330
301
100
AcDbEntity
  8
1
  6
Continuous
 62
     2
100
AcDbLine
 10
139.9
 20
80.9249062951809
 30
0.0
 11
139.4
 21
80.9249062951809
 31
0.0
  0
SOLID
  5
305
330
301
100
AcDbEntity
  8
1
 62
     2
100
AcDbTrace
 10
140.0050425072378
 20
83.9249062951809
 30
0.0
 11
140.7949574927622
 21
83.9249062951809
 31
0.0
 12
140.4
 22
80.9249062951809
 32
0.0
 13
140.4
 23
80.9249062951809
 33
0.0
  0
SOLID
  5
306
330
301
100
AcDbEntity
  8
1
 62
     2
100
AcDbTrace
 10
140.7949574927622
 20
109.9249062951809
 30
0.0
 11
140.0050425072378
 21
109.9249062951809
 31
0.0
 12
140.4
 22
112.9249062951809
 32
0.0
 13
140.4
 23
112.9249062951809
 33
0.0
  0
MTEXT
  5
307
330
301
100
AcDbEntity
  8
1
 62
     4
100
AcDbMText
 10
138.4
 20
93.0249062951809
 30
0.0
 40
3.0
 41
0.0
 71
     7
 72
     1
  1
M32
  7
CONVERTER_13
 11
0.0
 21
1.0
 31
0.0
 73
     1
 44
0.60024009603842
  0
ENDBLK
  5
309
330
301
100
AcDbEntity
  8
0
100
AcDbBlockEnd
  0
ENDSEC
  0
SECTION
  2
ENTITIES
  0
INSERT
  5
4F
330
1F
100
AcDbEntity
  8
0
100
AcDbBlockReference
  2
A4_oriz
 10
297.0000000000002
 20
0.0
 30
0.0
  0
LINE
  5
AB
330
1F
100
AcDbEntity
  8
1
  6
DOT_CENTER
 62
     2
100
AcDbLine
 10
216.3499602710981
 20
122.8499062951811
 30
0.0
 11
216.3499602710981
 21
70.99990629518068
 31
0.0
  0
LINE
  5
AC
330
1F
100
AcDbEntity
  8
1
  6
DOT_CENTER
 62
     2
100
AcDbLine
 10
242.2749602710983
 20
96.9249062951809
 30
0.0
 11
190.4249602710979
 21
96.9249062951809
 31
0.0
  0
LINE
  5
AD
330
1F
100
AcDbEntity
  8
Sichtbare_Kanten_TC_020513_DIN_
  6
Continuous
 62
     7
100
AcDbLine
 10
82.44996026457778
 20
131.9249062951787
 30
0.0
 11
81.32496026457778
 21
133.4784861088647
 31
0.0
  0
LINE
  5
AE
330
1F
100
AcDbEntity
  8
Sichtbare_Kanten_TC_020513_DIN_
  6
Continuous
 62
     7
100
AcDbLine
 10
81.32496026457778
 20
133.4784861088647
 30
0.0
 11
81.32496026457778
 21
129.4881272488157
 31
0.0
  0
LINE
  5
AF
330
1F
100
AcDbEntity
  8
Sichtbare_Kanten_TC_020513_DIN_
  6
Continuous
 62
     7
100
AcDbLine
 10
80.57496026457778
 20
129.4881272488157
 30
0.0
 11
80.57496026457778
 21
134.6357238030807
 31
0.0
  0
LINE
  5
B0
330
1F
100
AcDbEntity
  8
Sichtbare_Kanten_TC_020513_DIN_
  6
Continuous
 62
     7
100
AcDbLine
 10
81.25368912406776
 20
134.8556642038997
 30
0.0
 11
82.44996026457778
 21
133.2036618078197
 31
0.0
  0
LINE
  5
B1
330
1F
100
AcDbEntity
  8
Sichtbare_Kanten_TC_020513_DIN_
  6
Continuous
 62
     7
100
AcDbLine
 10
82.44996026457778
 20
133.2036618078197
 30
0.0
 11
83.64623140508678
 21
134.8556642038997
 31
0.0
  0
LINE
  5
B2
330
1F
100
AcDbEntity
  8
Sichtbare_Kanten_TC_020513_DIN_
  6
Continuous
 62
     7
100
AcDbLine
 10
84.32496026457778
 20
134.6357238030807
 30
0.0
 11
84.32496026457778
 21
127.7140887872777
 31
0.0
  0
LINE
  5
B3
330
1F
100
AcDbEntity
  8
Sichtbare_Kanten_TC_020513_DIN_
  6
Continuous
 62
     7
100
AcDbLine
 10
83.57496026457778
 20
127.7140887872777
 30
0.0
 11
83.57496026457778
 21
133.4784861088647
 31
0.0
  0
LINE
  5
B4
330
1F
100
AcDbEntity
  8
Sichtbare_Kanten_TC_020513_DIN_
  6
Continuous
 62
     7
100
AcDbLine
 10
83.57496026457778
 20
133.4784861088647
 30
0.0
 11
82.44996026457778
 21
131.9249062951787
 31
0.0
  0
LINE
  5
B5
330
1F
100
AcDbEntity
  8
Sichtbare_Kanten_TC_020513_DIN_
  6
Continuous
 62
     7
100
AcDbLine
 10
79.74996026457762
 20
133.7270699569267
 30
0.0
 11
79.74996026457762
 21
128.8393291051567
 31
0.0
  0
LINE
  5
B6
330
1F
100
AcDbEntity
  8
Sichtbare_Kanten_TC_020513_DIN_
  6
Continuous
 62
     7
100
AcDbLine
 10
79.74996026457762
 20
128.8393291051567
 30
0.0
 11
82.63735618463562
 21
127.1735237666607
 31
0.0
  0
LINE
  5
B7
330
1F
100
AcDbEntity
  8
Sichtbare_Kanten_TC_020513_DIN_
  6
Continuous
 62
     7
100
AcDbLine
 10
82.2625643445187
 20
126.5238845771247
 30
0.0
 11
79.18756434451876
 21
128.2979230386627
 31
0.0
  0
LINE
  5
B8
330
1F
100
AcDbEntity
  8
Sichtbare_Kanten_TC_020513_DIN_
  6
Continuous
 62
     7
100
AcDbLine
 10
78.99996026457762
 20
128.6227426334307
 30
0.0
 11
78.99996026457762
 21
133.7270699569267
 31
0.0
  0
LINE
  5
B9
330
1F
100
AcDbEntity
  8
Sichtbare_Kanten_TC_020513_DIN_
  6
Continuous
 62
     7
100
AcDbLine
 10
72.69996026457778
 20
131.1749062951787
 30
0.0
 11
82.44996026457778
 21
136.7999062951787
 31
0.0
  0
LINE
  5
BA
330
1F
100
AcDbEntity
  8
Sichtbare_Kanten_TC_020513_DIN_
  6
Continuous
 62
     7
100
AcDbLine
 10
82.44996026457778
 20
136.7999062951787
 30
0.0
 11
92.19996026457778
 21
131.1749062951787
 31
0.0
  0
LINE
  5
BB
330
1F
100
AcDbEntity
  8
Sichtbare_Kanten_TC_020513_DIN_
  6
Continuous
 62
     7
100
AcDbLine
 10
92.19996026457778
 20
131.1749062951787
 30
0.0
 11
82.44996026457778
 21
125.5499062951787
 31
0.0
  0
LINE
  5
BC
330
1F
100
AcDbEntity
  8
Sichtbare_Kanten_TC_020513_DIN_
  6
Continuous
 62
     7
100
AcDbLine
 10
82.44996026457778
 20
125.5499062951787
 30
0.0
 11
72.69996026457778
 21
131.1749062951787
 31
0.0
  0
LINE
  5
BD
330
1F
100
AcDbEntity
  8
Sichtbare_Kanten_TC_020513_DIN_
  6
Continuous
 62
     7
100
AcDbLine
 10
82.44996026457778
 20
136.3669736696077
 30
0.0
 11
73.45037681556772
 21
131.1749062951787
 31
0.0
  0
LINE
  5
BE
330
1F
100
AcDbEntity
  8
Sichtbare_Kanten_TC_020513_DIN_
  6
Continuous
 62
     7
100
AcDbLine
 10
91.4495437135867
 20
131.1749062951787
 30
0.0
 11
82.44996026457778
 21
136.3669736696077
 31
0.0
  0
LINE
  5
BF
330
1F
100
AcDbEntity
  8
Sichtbare_Kanten_TC_020513_DIN_
  6
Continuous
 62
     7
100
AcDbLine
 10
82.44996026457778
 20
125.9828389207497
 30
0.0
 11
91.4495437135867
 21
131.1749062951787
 31
0.0
  0
LINE
  5
C0
330
1F
100
AcDbEntity
  8
Sichtbare_Kanten_TC_020513_DIN_
  6
Continuous
 62
     7
100
AcDbLine
 10
73.45037681556772
 20
131.1749062951787
 30
0.0
 11
82.44996026457778
 21
125.9828389207497
 31
0.0
  0
LINE
  5
C1
330
1F
100
AcDbEntity
  8
Sichtbare_Kanten_TC_020513_DIN_
  6
Continuous
 62
     7
100
AcDbLine
 10
78.24996026457762
 20
132.8616853415417
 30
0.0
 11
78.24996026457762
 21
129.4881272488157
 31
0.0
  0
LINE
  5
C2
330
1F
100
AcDbEntity
  8
Sichtbare_Kanten_TC_020513_DIN_
  6
Continuous
 62
     7
100
AcDbLine
 10
77.49996026457762
 20
129.4881272488157
 30
0.0
 11
77.49996026457762
 21
132.8616853415417
 31
0.0
  0
LINE
  5
C3
330
1F
100
AcDbEntity
  8
Sichtbare_Kanten_TC_020513_DIN_
  6
Continuous
 62
     7
100
AcDbLine
 10
85.63735618463562
 20
134.0951587824637
 30
0.0
 11
87.88735618463562
 21
132.7970818593867
 31
0.0
  0
LINE
  5
C4
330
1F
100
AcDbEntity
  8
Sichtbare_Kanten_TC_020513_DIN_
  6
Continuous
 62
     7
100
AcDbLine
 10
87.5125643445187
 20
132.1474426698507
 30
0.0
 11
85.82496026457778
 21
133.1210604082787
 31
0.0
  0
LINE
  5
C5
330
1F
100
AcDbEntity
  8
Sichtbare_Kanten_TC_020513_DIN_
  6
Continuous
 62
     7
100
AcDbLine
 10
85.82496026457778
 20
133.1210604082787
 30
0.0
 11
85.82496026457778
 21
131.5499062951787
 31
0.0
  0
LINE
  5
C6
330
1F
100
AcDbEntity
  8
Sichtbare_Kanten_TC_020513_DIN_
  6
Continuous
 62
     7
100
AcDbLine
 10
85.82496026457778
 20
131.5499062951787
 30
0.0
 11
87.69996026457778
 21
131.5499062951787
 31
0.0
  0
LINE
  5
C7
330
1F
100
AcDbEntity
  8
Sichtbare_Kanten_TC_020513_DIN_
  6
Continuous
 62
     7
100
AcDbLine
 10
87.69996026457778
 20
130.7999062951787
 30
0.0
 11
85.82496026457778
 21
130.7999062951787
 31
0.0
  0
LINE
  5
C8
330
1F
100
AcDbEntity
  8
Sichtbare_Kanten_TC_020513_DIN_
  6
Continuous
 62
     7
100
AcDbLine
 10
85.82496026457778
 20
130.7999062951787
 30
0.0
 11
85.82496026457778
 21
129.2287521820797
 31
0.0
  0
LINE
  5
C9
330
1F
100
AcDbEntity
  8
Sichtbare_Kanten_TC_020513_DIN_
  6
Continuous
 62
     7
100
AcDbLine
 10
85.82496026457778
 20
129.2287521820797
 30
0.0
 11
87.5125643445187
 21
130.2023699205067
 31
0.0
  0
LINE
  5
CA
330
1F
100
AcDbEntity
  8
Sichtbare_Kanten_TC_020513_DIN_
  6
Continuous
 62
     7
100
AcDbLine
 10
87.88735618463562
 20
129.5527307309707
 30
0.0
 11
85.63735618463562
 21
128.2546538078937
 31
0.0
  0
LINE
  5
CB
330
1F
100
AcDbEntity
  8
Sichtbare_Kanten_TC_020513_DIN_
  6
Continuous
 62
     7
100
AcDbLine
 10
85.07496026457778
 20
128.5794734026617
 30
0.0
 11
85.07496026457778
 21
133.7703391876957
 31
0.0
  0
LINE
  5
D5
330
1F
100
AcDbEntity
  8
0
  6
Continuous
 62
     7
100
AcDbLine
 10
250.6131463612519
 20
159.9249062951843
 30
0.0
 11
250.260755479857
 21
159.924906295185
 31
0.0
  0
LINE
  5
D6
330
1F
100
AcDbEntity
  8
0
  6
Continuous
 62
     7
100
AcDbLine
 10
251.0706373203166
 20
159.0249062951838
 30
0.0
 11
250.6338682907872
 21
159.0249062951844
 31
0.0
  0
LINE
  5
D7
330
1F
100
AcDbEntity
  8
0
  6
Continuous
 62
     7
100
AcDbLine
 10
251.5878812433048
 20
157.1249062951836
 30
0.0
 11
251.1842488222138
 21
157.1249062951837
 31
0.0
  0
LINE
  5
D8
330
1F
100
AcDbEntity
  8
0
  6
Continuous
 62
     7
100
AcDbLine
 10
251.6497890362071
 20
156.2249062951837
 30
0.0
 11
251.349781697385
 21
156.2249062951837
 31
0.0
  0
LINE
  5
D9
330
1F
100
AcDbEntity
  8
0
  6
Continuous
 62
     7
100
AcDbLine
 10
251.4116527027991
 20
154.324906295184
 30
0.0
 11
251.1010712907701
 21
154.3249062951839
 31
0.0
  0
LINE
  5
DA
330
1F
100
AcDbEntity
  8
0
  6
Continuous
 62
     7
100
AcDbLine
 10
251.1121714479205
 20
153.4249062951845
 30
0.0
 11
250.6782696819865
 21
153.4249062951839
 31
0.0
  0
LINE
  5
DB
330
1F
100
AcDbEntity
  8
0
  6
Continuous
 62
     7
100
AcDbLine
 10
250.6131463612565
 20
152.4249062951843
 30
0.0
 11
250.2607554798624
 21
152.4249062951839
 31
0.0
  0
LINE
  5
E5
330
1F
100
AcDbEntity
  8
0
  6
Continuous
 62
     7
100
AcDbLine
 10
119.9499602645779
 20
130.6749062951809
 30
0.0
 11
119.9499602645779
 21
132.0983913831122
 31
0.0
  0
LINE
  5
E6
330
1F
100
AcDbEntity
  8
0
  6
Continuous
 62
     7
100
AcDbLine
 10
119.9499602645779
 20
132.0983913831122
 30
0.0
 11
119.9499602645779
 21
149.1749062951801
 31
0.0
  0
LINE
  5
E7
330
1F
100
AcDbEntity
  8
1
  6
Continuous
 62
     7
100
AcDbLine
 10
201.849960271092
 20
142.6749062951793
 30
0.0
 11
210.3499602710913
 21
142.6749062951787
 31
0.0
  0
LINE
  5
E8
330
1F
100
AcDbEntity
  8
1
  6
DOT_CENTER
 62
     2
100
AcDbLine
 10
193.8499602710997
 20
70.87321477019282
 30
0.0
 11
193.8499602710997
 21
84.61962642817353
 31
0.0
  0
LINE
  5
E9
330
1F
100
AcDbEntity
  8
1
  6
DOT_CENTER
 62
     2
100
AcDbLine
 10
238.8499602711
 20
71.22680311220581
 30
0.0
 11
238.8499602711
 21
84.61962642816691
 31
0.0
  0
LINE
  5
EA
330
1F
100
AcDbEntity
  8
1
  6
DOT_CENTER
 62
     2
100
AcDbLine
 10
47.4499602645779
 20
67.00219377696293
 30
0.0
 11
47.4499602645779
 21
80.6196264281675
 31
0.0
  0
LINE
  5
EB
330
1F
100
AcDbEntity
  8
1
  6
DOT_CENTER
 62
     2
100
AcDbLine
 10
117.4499602645779
 20
66.80637621296722
 30
0.0
 11
117.4499602645779
 21
80.61962642816691
 31
0.0
  0
LINE
  5
EC
330
1F
100
AcDbEntity
  8
0
  6
Continuous
 62
     7
100
AcDbLine
 10
242.8499602711
 20
74.17490629518392
 30
0.0
 11
244.8499602711
 21
74.17490629518412
 31
0.0
  0
LINE
  5
ED
330
1F
100
AcDbEntity
  8
0
  6
Continuous
 62
     7
100
AcDbLine
 10
238.0999602710991
 20
78.17490629518342
 30
0.0
 11
238.0999602710981
 21
96.9249062951834
 31
0.0
  0
LINE
  5
EE
330
1F
100
AcDbEntity
  8
0
  6
Continuous
 62
     7
100
AcDbLine
 10
238.0999602710981
 20
96.9249062951834
 30
0.0
 11
238.0999602710918
 21
142.6749062951834
 31
0.0
  0
LINE
  5
EF
330
1F
100
AcDbEntity
  8
0
  6
Continuous
 62
     7
100
AcDbLine
 10
238.0999602710918
 20
142.6749062951834
 30
0.0
 11
237.8499602710918
 21
142.6749062951834
 31
0.0
  0
LINE
  5
F0
330
1F
100
AcDbEntity
  8
0
  6
Continuous
 62
     7
100
AcDbLine
 10
237.8499602710918
 20
142.6749062951834
 30
0.0
 11
237.8499602710918
 21
144.4723998432862
 31
0.0
  0
LINE
  5
F1
330
1F
100
AcDbEntity
  8
0
  6
Continuous
 62
     7
100
AcDbLine
 10
235.3653899292549
 20
142.674906295183
 30
0.0
 11
237.8499602710918
 21
144.4723998432862
 31
0.0
  0
LINE
  5
F2
330
1F
100
AcDbEntity
  8
0
  6
Continuous
 62
     7
100
AcDbLine
 10
237.8499602710918
 20
144.4723998432862
 30
0.0
 11
244.3499602710918
 21
149.1749062951802
 31
0.0
  0
LINE
  5
F3
330
1F
100
AcDbEntity
  8
0
  6
Continuous
 62
     7
100
AcDbLine
 10
244.8499602710991
 20
78.17490629518413
 30
0.0
 11
242.8499602710991
 21
78.17490629518393
 31
0.0
  0
LINE
  5
F4
330
1F
100
AcDbEntity
  8
0
  6
Continuous
 62
     7
100
AcDbLine
 10
244.8499602711
 20
74.17490629518412
 30
0.0
 11
244.8499602710991
 21
78.17490629518413
 31
0.0
  0
LINE
  5
F5
330
1F
100
AcDbEntity
  8
0
  6
Continuous
 62
     7
100
AcDbLine
 10
226.082435988199
 20
147.6370456274192
 30
0.0
 11
217.8846705642191
 21
156.1759434800465
 31
0.0
  0
LINE
  5
F6
330
1F
100
AcDbEntity
  8
0
  6
Continuous
 62
     7
100
AcDbLine
 10
218.4746750458617
 20
147.6594761502058
 30
0.0
 11
216.6052225609793
 21
152.7957546391637
 31
0.0
  0
LINE
  5
F7
330
1F
100
AcDbEntity
  8
0
  6
Continuous
 62
     7
100
AcDbLine
 10
213.1121379215229
 20
154.0310667536342
 30
0.0
 11
212.8551178642147
 21
153.8763389599382
 31
0.0
  0
LINE
  5
F8
330
1F
100
AcDbEntity
  8
0
  6
Continuous
 62
     7
100
AcDbLine
 10
248.405678511911
 20
150.5926890339931
 30
0.0
 11
248.4644570371402
 21
150.5117873345555
 31
0.0
  0
LINE
  5
F9
330
1F
100
AcDbEntity
  8
0
  6
Continuous
 62
     7
100
AcDbLine
 10
249.1431030272589
 20
151.2114616728435
 30
0.0
 11
249.2125688643046
 21
151.1395276928096
 31
0.0
  0
LINE
  5
FA
330
1F
100
AcDbEntity
  8
0
  6
Continuous
 62
     7
100
AcDbLine
 10
247.5893140543149
 20
150.0825679044536
 30
0.0
 11
247.6362612105941
 21
149.9942731451677
 31
0.0
  0
LINE
  5
FB
330
1F
100
AcDbEntity
  8
0
  6
Continuous
 62
     7
100
AcDbLine
 10
246.7441012743721
 20
149.5970579496788
 30
0.0
 11
246.7098992600386
 21
149.6910272117574
 31
0.0
  0
LINE
  5
FC
330
1F
100
AcDbEntity
  8
0
  6
Continuous
 62
     7
100
AcDbLine
 10
245.784550937734
 20
149.4256878501169
 30
0.0
 11
245.8053421068171
 21
149.3278730900436
 31
0.0
  0
LINE
  5
FD
330
1F
100
AcDbEntity
  8
0
  6
Continuous
 62
     7
100
AcDbLine
 10
244.8382555873005
 20
149.1919579433614
 30
0.0
 11
244.8312799399264
 21
149.2917143483874
 31
0.0
  0
LINE
  5
FE
330
1F
100
AcDbEntity
  8
0
  6
Continuous
 62
     7
100
AcDbLine
 10
242.8499602710872
 20
151.674906295179
 30
0.0
 11
244.3499602710963
 21
151.674906295179
 31
0.0
  0
LINE
  5
FF
330
1F
100
AcDbEntity
  8
0
  6
Continuous
 62
     7
100
AcDbLine
 10
244.3499602710918
 20
149.1749062951802
 30
0.0
 11
244.3499602710918
 21
149.2749062951803
 31
0.0
  0
LINE
  5
100
330
1F
100
AcDbEntity
  8
0
  6
Continuous
 62
     7
100
AcDbLine
 10
251.0450007823966
 20
154.5056452155425
 30
0.0
 11
251.142030355024
 21
154.4814530259826
 31
0.0
  0
LINE
  5
101
330
1F
100
AcDbEntity
  8
0
  6
Continuous
 62
     7
100
AcDbLine
 10
250.8402472530598
 20
153.5526601412688
 30
0.0
 11
250.7475288676033
 21
153.5901208006104
 31
0.0
  0
LINE
  5
102
330
1F
100
AcDbEntity
  8
0
  6
Continuous
 62
     7
100
AcDbLine
 10
250.3499602710845
 20
152.7675612876876
 30
0.0
 11
250.3499602710845
 21
152.7108046800465
 31
0.0
  0
LINE
  5
103
330
1F
100
AcDbEntity
  8
0
  6
Continuous
 62
     7
100
AcDbLine
 10
189.8499602710988
 20
78.17490629517793
 30
0.0
 11
187.8499602710988
 21
78.17490629517762
 31
0.0
  0
LINE
  5
104
330
1F
100
AcDbEntity
  8
0
  6
Continuous
 62
     7
100
AcDbLine
 10
187.8499602710997
 20
74.17490629517762
 30
0.0
 11
189.8499602710997
 21
74.17490629517792
 31
0.0
  0
LINE
  5
105
330
1F
100
AcDbEntity
  8
0
  6
Continuous
 62
     7
100
AcDbLine
 10
194.5999602710979
 20
96.9249062951784
 30
0.0
 11
194.599960271092
 21
142.6749062951784
 31
0.0
  0
LINE
  5
106
330
1F
100
AcDbEntity
  8
0
  6
Continuous
 62
     7
100
AcDbLine
 10
187.8499602710997
 20
74.17490629517762
 30
0.0
 11
187.8499602710988
 21
78.17490629517762
 31
0.0
  0
LINE
  5
107
330
1F
100
AcDbEntity
  8
0
  6
Continuous
 62
     7
100
AcDbLine
 10
237.8499602710918
 20
142.6749062951834
 30
0.0
 11
235.3653899292549
 21
142.674906295183
 31
0.0
  0
LINE
  5
108
330
1F
100
AcDbEntity
  8
0
  6
Continuous
 62
     7
100
AcDbLine
 10
235.3653899292549
 20
142.674906295183
 30
0.0
 11
220.7460911294048
 21
132.0983913831123
 31
0.0
  0
LINE
  5
109
330
1F
100
AcDbEntity
  8
0
  6
Continuous
 62
     7
100
AcDbLine
 10
207.5499602710943
 20
156.8749062951814
 30
0.0
 11
207.5499602710943
 21
159.1749062951798
 31
0.0
  0
LINE
  5
10A
330
1F
100
AcDbEntity
  8
0
  6
Continuous
 62
     7
100
AcDbLine
 10
242.8499602710991
 20
78.17490629518393
 30
0.0
 11
238.0999602710991
 21
78.17490629518342
 31
0.0
  0
LINE
  5
10B
330
1F
100
AcDbEntity
  8
0
  6
Continuous
 62
     7
100
AcDbLine
 10
227.3726641136237
 20
78.17490629518211
 30
0.0
 11
238.0999602710991
 21
78.17490629518342
 31
0.0
  0
LINE
  5
10C
330
1F
100
AcDbEntity
  8
0
  6
Continuous
 62
     7
100
AcDbLine
 10
194.5999602710988
 20
78.17490629517842
 30
0.0
 11
194.5999602710979
 21
96.9249062951784
 31
0.0
  0
LINE
  5
10D
330
1F
100
AcDbEntity
  8
0
  6
Continuous
 62
     7
100
AcDbLine
 10
242.8499602711
 20
74.17490629518392
 30
0.0
 11
189.8499602710997
 21
74.17490629517792
 31
0.0
  0
LINE
  5
10E
330
1F
100
AcDbEntity
  8
0
  6
Continuous
 62
     7
100
AcDbLine
 10
189.8499602710988
 20
78.17490629517793
 30
0.0
 11
194.5999602710988
 21
78.17490629517842
 31
0.0
  0
LINE
  5
10F
330
1F
100
AcDbEntity
  8
0
  6
Continuous
 62
     7
100
AcDbLine
 10
194.5999602710988
 20
78.17490629517842
 30
0.0
 11
205.3272564285745
 21
78.17490629517961
 31
0.0
  0
LINE
  5
110
330
1F
100
AcDbEntity
  8
0
  6
Continuous
 62
     7
100
AcDbLine
 10
194.8499602710911
 20
148.1749062951784
 30
0.0
 11
201.8499602710911
 21
148.1749062951793
 31
0.0
  0
LINE
  5
111
330
1F
100
AcDbEntity
  8
0
  6
Continuous
 62
     7
100
AcDbLine
 10
201.8499602710911
 20
148.1749062951793
 30
0.0
 11
218.287073815247
 21
148.1749062951813
 31
0.0
  0
LINE
  5
112
330
1F
100
AcDbEntity
  8
0
  6
Continuous
 62
     7
100
AcDbLine
 10
194.849960271092
 20
142.6749062951784
 30
0.0
 11
194.8499602710911
 21
148.1749062951784
 31
0.0
  0
LINE
  5
113
330
1F
100
AcDbEntity
  8
0
  6
Continuous
 62
     7
100
AcDbLine
 10
200.599960271092
 20
142.6749062951791
 30
0.0
 11
201.849960271092
 21
142.6749062951793
 31
0.0
  0
LINE
  5
114
330
1F
100
AcDbEntity
  8
0
  6
Continuous
 62
     7
100
AcDbLine
 10
194.849960271092
 20
142.6749062951784
 30
0.0
 11
194.599960271092
 21
142.6749062951784
 31
0.0
  0
LINE
  5
115
330
1F
100
AcDbEntity
  8
0
  6
Continuous
 62
     7
100
AcDbLine
 10
200.599960271092
 20
142.6749062951791
 30
0.0
 11
194.849960271092
 21
142.6749062951784
 31
0.0
  0
LINE
  5
116
330
1F
100
AcDbEntity
  8
0
  6
Continuous
 62
     7
100
AcDbLine
 10
249.7872344709786
 20
151.9268421154332
 30
0.0
 11
249.866035546339
 21
151.8652759679005
 31
0.0
  0
LINE
  5
117
330
1F
100
AcDbEntity
  8
0
  6
Continuous
 62
     7
100
AcDbLine
 10
250.3499602710845
 20
152.7108046800465
 30
0.0
 11
250.4121380975831
 21
152.6749062951802
 31
0.0
  0
LINE
  5
118
330
1F
100
AcDbEntity
  8
0
  6
Continuous
 62
     7
100
AcDbLine
 10
250.3255355572047
 20
152.7249062951802
 30
0.0
 11
250.3499602710845
 21
152.7108046800465
 31
0.0
  0
LINE
  5
119
330
1F
100
AcDbEntity
  8
0
  6
Continuous
 62
     7
100
AcDbLine
 10
241.8499602710872
 20
159.6749062951791
 30
0.0
 11
241.8499602710872
 21
152.674906295179
 31
0.0
  0
LINE
  5
11A
330
1F
100
AcDbEntity
  8
0
  6
Continuous
 62
     7
100
AcDbLine
 10
210.0499602710971
 20
157.6929241773014
 30
0.0
 11
210.0499602710971
 21
159.1749062951789
 31
0.0
  0
LINE
  5
11B
330
1F
100
AcDbEntity
  8
0
  6
Continuous
 62
     7
100
AcDbLine
 10
247.1971167726224
 20
162.5697244986785
 30
0.0
 11
247.1564431083162
 21
162.4783699529142
 31
0.0
  0
LINE
  5
11C
330
1F
100
AcDbEntity
  8
0
  6
Continuous
 62
     7
100
AcDbLine
 10
248.0064031943021
 20
162.0264381586597
 30
0.0
 11
248.0593951207248
 21
162.1112429682753
 31
0.0
  0
LINE
  5
11D
330
1F
100
AcDbEntity
  8
0
  6
Continuous
 62
     7
100
AcDbLine
 10
248.78519477793
 20
161.460612952701
 30
0.0
 11
248.8494735388977
 21
161.5372173970132
 31
0.0
  0
LINE
  5
11E
330
1F
100
AcDbEntity
  8
0
  6
Continuous
 62
     7
100
AcDbLine
 10
211.5499602710943
 20
163.1749062951802
 30
0.0
 11
244.3499602710918
 21
163.1749062951804
 31
0.0
  0
LINE
  5
11F
330
1F
100
AcDbEntity
  8
0
  6
Continuous
 62
     7
100
AcDbLine
 10
244.3499602710963
 20
160.6749062951791
 30
0.0
 11
242.8499602710872
 21
160.6749062951791
 31
0.0
  0
LINE
  5
120
330
1F
100
AcDbEntity
  8
0
  6
Continuous
 62
     7
100
AcDbLine
 10
211.5499602710971
 20
160.6749062951791
 30
0.0
 11
231.983261425422
 21
160.6749062951791
 31
0.0
  0
LINE
  5
121
330
1F
100
AcDbEntity
  8
0
  6
Continuous
 62
     7
100
AcDbLine
 10
246.2518580262295
 20
162.8076119971546
 30
0.0
 11
246.2794217618121
 21
162.9037381667485
 31
0.0
  0
LINE
  5
122
330
1F
100
AcDbEntity
  8
0
  6
Continuous
 62
     7
100
AcDbLine
 10
245.3102546677165
 20
163.0077559694971
 30
0.0
 11
245.3241719778126
 21
163.1067827763714
 31
0.0
  0
LINE
  5
123
330
1F
100
AcDbEntity
  8
0
  6
Continuous
 62
     7
100
AcDbLine
 10
244.3499602710918
 20
163.1749062951804
 30
0.0
 11
244.3499602710918
 21
163.0749062951803
 31
0.0
  0
LINE
  5
124
330
1F
100
AcDbEntity
  8
0
  6
Continuous
 62
     7
100
AcDbLine
 10
249.4776595668873
 20
160.7919074790564
 30
0.0
 11
249.5519740494411
 21
160.8588205396977
 31
0.0
  0
LINE
  5
125
330
1F
100
AcDbEntity
  8
0
  6
Continuous
 62
     7
100
AcDbLine
 10
250.5516391905558
 20
159.199667208025
 30
0.0
 11
250.6415185951865
 21
159.2435043227038
 31
0.0
  0
LINE
  5
126
330
1F
100
AcDbEntity
  8
0
  6
Continuous
 62
     7
100
AcDbLine
 10
250.1532232789769
 20
160.0892566194754
 30
0.0
 11
250.0703195217221
 21
160.0333373291284
 31
0.0
  0
LINE
  5
127
330
1F
100
AcDbEntity
  8
0
  6
Continuous
 62
     7
100
AcDbLine
 10
251.31161353867
 20
155.4432070523066
 30
0.0
 11
251.2121613491327
 21
155.4536598986334
 31
0.0
  0
LINE
  5
128
330
1F
100
AcDbEntity
  8
0
  6
Continuous
 62
     7
100
AcDbLine
 10
251.2457569775243
 20
156.4157128224274
 30
0.0
 11
251.3456960602262
 21
156.4192027720977
 31
0.0
  0
LINE
  5
129
330
1F
100
AcDbEntity
  8
0
  6
Continuous
 62
     7
100
AcDbLine
 10
250.9122502335286
 20
158.3071235563673
 30
0.0
 11
251.0073558851591
 21
158.3380252558048
 31
0.0
  0
LINE
  5
12A
330
1F
100
AcDbEntity
  8
0
  6
Continuous
 62
     7
100
AcDbLine
 10
251.243614542178
 20
157.3904435388487
 30
0.0
 11
251.145133766876
 21
157.3730787210821
 31
0.0
  0
LINE
  5
12B
330
1F
100
AcDbEntity
  8
1
  6
DOT_CENTER
 62
     2
100
AcDbLine
 10
221.9599602710933
 20
138.1749062951809
 30
0.0
 11
210.739960271093
 21
138.1749062951809
 31
0.0
  0
LINE
  5
12C
330
1F
100
AcDbEntity
  8
1
  6
DOT_CENTER
 62
     2
100
AcDbLine
 10
216.3499602710927
 20
143.7849062951806
 30
0.0
 11
216.3499602710927
 21
132.5649062951811
 31
0.0
  0
LINE
  5
12D
330
1F
100
AcDbEntity
  8
0
  6
Continuous
 62
     7
100
AcDbLine
 10
123.4499602645779
 20
74.17490629518392
 30
0.0
 11
123.4499602645779
 21
78.17490629518393
 31
0.0
  0
LINE
  5
12E
330
1F
100
AcDbEntity
  8
0
  6
Continuous
 62
     7
100
AcDbLine
 10
112.4499602645779
 20
74.67490629518412
 30
0.0
 11
112.4499602645779
 21
74.17490629518412
 31
0.0
  0
LINE
  5
12F
330
1F
100
AcDbEntity
  8
0
  6
Continuous
 62
     7
100
AcDbLine
 10
121.4499602645779
 20
74.17490629518412
 30
0.0
 11
123.4499602645779
 21
74.17490629518392
 31
0.0
  0
LINE
  5
130
330
1F
100
AcDbEntity
  8
0
  6
Continuous
 62
     7
100
AcDbLine
 10
123.4499602645779
 20
78.17490629518393
 30
0.0
 11
121.4499602645779
 21
78.17490629518413
 31
0.0
  0
LINE
  5
131
330
1F
100
AcDbEntity
  8
0
  6
Continuous
 62
     7
100
AcDbLine
 10
112.9858586494398
 20
78.17490629518413
 30
0.0
 11
121.4499602645779
 21
78.17490629518413
 31
0.0
  0
LINE
  5
132
330
1F
100
AcDbEntity
  8
0
  6
Continuous
 62
     7
100
AcDbLine
 10
112.4499602645779
 20
74.17490629518412
 30
0.0
 11
112.9858586494398
 21
74.17490629518412
 31
0.0
  0
LINE
  5
133
330
1F
100
AcDbEntity
  8
0
  6
Continuous
 62
     7
100
AcDbLine
 10
114.4499602645779
 20
130.6749062951809
 30
0.0
 11
114.4499602645779
 21
132.0983913831123
 31
0.0
  0
LINE
  5
134
330
1F
100
AcDbEntity
  8
0
  6
Continuous
 62
     7
100
AcDbLine
 10
112.9858586494398
 20
78.17490629518413
 30
0.0
 11
112.4499602645779
 21
78.17490629518282
 31
0.0
  0
LINE
  5
135
330
1F
100
AcDbEntity
  8
0
  6
Continuous
 62
     7
100
AcDbLine
 10
112.9858586494398
 20
74.17490629518412
 30
0.0
 11
121.4499602645779
 21
74.17490629518412
 31
0.0
  0
LINE
  5
136
330
1F
100
AcDbEntity
  8
0
  6
Continuous
 62
     7
100
AcDbLine
 10
119.9499602645779
 20
130.6749062951809
 30
0.0
 11
114.4499602645779
 21
130.6749062951809
 31
0.0
  0
LINE
  5
137
330
1F
100
AcDbEntity
  8
0
  6
Continuous
 62
     7
100
AcDbLine
 10
123.4499602645779
 20
78.17490629518393
 30
0.0
 11
123.4499602645779
 21
118.6749062951809
 31
0.0
  0
LINE
  5
138
330
1F
100
AcDbEntity
  8
0
  6
Continuous
 62
     7
100
AcDbLine
 10
44.9499602645779
 20
130.6749062951809
 30
0.0
 11
44.9499602645779
 21
132.0983913831124
 31
0.0
  0
LINE
  5
139
330
1F
100
AcDbEntity
  8
0
  6
Continuous
 62
     7
100
AcDbLine
 10
50.4499602645779
 20
130.6749062951809
 30
0.0
 11
50.4499602645779
 21
132.0983913831124
 31
0.0
  0
LINE
  5
13A
330
1F
100
AcDbEntity
  8
0
  6
Continuous
 62
     7
100
AcDbLine
 10
50.4499602645779
 20
130.6749062951809
 30
0.0
 11
44.9499602645779
 21
130.6749062951809
 31
0.0
  0
LINE
  5
13B
330
1F
100
AcDbEntity
  8
0
  6
Continuous
 62
     7
100
AcDbLine
 10
82.4499602645779
 20
156.1749062951847
 30
0.0
 11
82.4499602645779
 21
157.8749062951846
 31
0.0
  0
LINE
  5
13C
330
1F
100
AcDbEntity
  8
0
  6
Continuous
 62
     7
100
AcDbLine
 10
82.59429783187494
 20
159.9249062951843
 30
0.0
 11
80.05395664744088
 21
155.5249062951845
 31
0.0
  0
LINE
  5
13D
330
1F
100
AcDbEntity
  8
0
  6
Continuous
 62
     7
100
AcDbLine
 10
79.53434140516976
 20
155.5249062951844
 30
0.0
 11
82.07468258960381
 21
159.9249062951841
 31
0.0
  0
LINE
  5
13E
330
1F
100
AcDbEntity
  8
0
  6
Continuous
 62
     7
100
AcDbLine
 10
78.23530329949386
 20
155.9749062951841
 30
0.0
 11
80.51583686279179
 21
159.9249062951839
 31
0.0
  0
LINE
  5
13F
330
1F
100
AcDbEntity
  8
0
  6
Continuous
 62
     7
100
AcDbLine
 10
81.03545210506292
 20
159.9249062951842
 30
0.0
 11
78.49511092062886
 21
155.5249062951841
 31
0.0
  0
LINE
  5
140
330
1F
100
AcDbEntity
  8
0
  6
Continuous
 62
     7
100
AcDbLine
 10
87.15536495847283
 20
155.5249062951854
 30
0.0
 11
85.8851943662558
 21
157.724906295185
 31
0.0
  0
LINE
  5
141
330
1F
100
AcDbEntity
  8
0
  6
Continuous
 62
     7
100
AcDbLine
 10
89.46476603523189
 20
156.1249062951853
 30
0.0
 11
87.27083501231078
 21
159.9249062951843
 31
0.0
  0
LINE
  5
142
330
1F
100
AcDbEntity
  8
0
  6
Continuous
 62
     7
100
AcDbLine
 10
89.46476603523189
 20
156.1249062951853
 30
0.0
 11
89.46476603523189
 21
158.024906295185
 31
0.0
  0
LINE
  5
143
330
1F
100
AcDbEntity
  8
0
  6
Continuous
 62
     7
100
AcDbLine
 10
44.9499602645779
 20
157.3730787210821
 30
0.0
 11
44.9499602645779
 21
156.4192027720977
 31
0.0
  0
LINE
  5
144
330
1F
100
AcDbEntity
  8
0
  6
Continuous
 62
     7
100
AcDbLine
 10
75.4351544939239
 20
157.1249062951836
 30
0.0
 11
75.4351544939239
 21
159.0249062951838
 31
0.0
  0
LINE
  5
145
330
1F
100
AcDbEntity
  8
0
  6
Continuous
 62
     7
100
AcDbLine
 10
44.9499602645779
 20
159.199667208025
 30
0.0
 11
44.9499602645779
 21
158.3380252558049
 31
0.0
  0
LINE
  5
146
330
1F
100
AcDbEntity
  8
0
  6
Continuous
 62
     7
100
AcDbLine
 10
44.9499602645779
 20
160.7919074790564
 30
0.0
 11
44.9499602645779
 21
160.0892566194755
 31
0.0
  0
LINE
  5
147
330
1F
100
AcDbEntity
  8
0
  6
Continuous
 62
     7
100
AcDbLine
 10
44.9499602645779
 20
160.0892566194755
 30
0.0
 11
44.9499602645779
 21
159.2435043227038
 31
0.0
  0
LINE
  5
148
330
1F
100
AcDbEntity
  8
0
  6
Continuous
 62
     7
100
AcDbLine
 10
44.9499602645779
 20
157.3904435388487
 30
0.0
 11
44.9499602645779
 21
157.3730787210821
 31
0.0
  0
LINE
  5
149
330
1F
100
AcDbEntity
  8
0
  6
Continuous
 62
     7
100
AcDbLine
 10
44.9499602645779
 20
158.3380252558049
 30
0.0
 11
44.9499602645779
 21
157.3904435388487
 31
0.0
  0
LINE
  5
14A
330
1F
100
AcDbEntity
  8
0
  6
Continuous
 62
     7
100
AcDbLine
 10
44.9499602645779
 20
161.5372173970132
 30
0.0
 11
44.9499602645779
 21
160.8588205396923
 31
0.0
  0
LINE
  5
14B
330
1F
100
AcDbEntity
  8
0
  6
Continuous
 62
     7
100
AcDbLine
 10
44.9499602645779
 20
162.0264381586597
 30
0.0
 11
44.9499602645779
 21
161.5372173970132
 31
0.0
  0
LINE
  5
14C
330
1F
100
AcDbEntity
  8
0
  6
Continuous
 62
     7
100
AcDbLine
 10
44.9499602645779
 20
162.5697244986785
 30
0.0
 11
44.9499602645779
 21
162.1112429682753
 31
0.0
  0
LINE
  5
14D
330
1F
100
AcDbEntity
  8
0
  6
Continuous
 62
     7
100
AcDbLine
 10
74.9351544939239
 20
157.3730787210821
 30
0.0
 11
74.9351544939239
 21
157.3904435388487
 31
0.0
  0
LINE
  5
14E
330
1F
100
AcDbEntity
  8
0
  6
Continuous
 62
     7
100
AcDbLine
 10
89.9647660352328
 20
157.3904435388487
 30
0.0
 11
89.9647660352328
 21
157.3730787210821
 31
0.0
  0
LINE
  5
14F
330
1F
100
AcDbEntity
  8
0
  6
Continuous
 62
     7
100
AcDbLine
 10
89.9647660352328
 20
159.199667208025
 30
0.0
 11
89.9647660352328
 21
159.2435043227038
 31
0.0
  0
LINE
  5
150
330
1F
100
AcDbEntity
  8
0
  6
Continuous
 62
     7
100
AcDbLine
 10
44.9499602645779
 20
162.8076119971546
 30
0.0
 11
44.9499602645779
 21
162.9037381667485
 31
0.0
  0
LINE
  5
151
330
1F
100
AcDbEntity
  8
0
  6
Continuous
 62
     7
100
AcDbLine
 10
44.9499602645779
 20
163.1749062951804
 30
0.0
 11
44.9499602645779
 21
163.1067827763714
 31
0.0
  0
LINE
  5
152
330
1F
100
AcDbEntity
  8
0
  6
Continuous
 62
     7
100
AcDbLine
 10
44.9499602645779
 20
157.3730787210821
 30
0.0
 11
74.9351544939239
 21
157.3730787210821
 31
0.0
  0
LINE
  5
153
330
1F
100
AcDbEntity
  8
0
  6
Continuous
 62
     7
100
AcDbLine
 10
79.47660637825089
 20
159.9249062951842
 30
0.0
 11
77.71568805722274
 21
156.8749062951839
 31
0.0
  0
LINE
  5
154
330
1F
100
AcDbEntity
  8
0
  6
Continuous
 62
     7
100
AcDbLine
 10
86.75121977004079
 20
159.9249062951846
 30
0.0
 11
89.46476603523189
 21
155.2249062951859
 31
0.0
  0
LINE
  5
155
330
1F
100
AcDbEntity
  8
0
  6
Continuous
 62
     7
100
AcDbLine
 10
41.4499602645779
 20
118.6749062951809
 30
0.0
 11
52.4499602645779
 21
118.6749062951809
 31
0.0
  0
LINE
  5
156
330
1F
100
AcDbEntity
  8
0
  6
Continuous
 62
     7
100
AcDbLine
 10
41.4499602645779
 20
74.17490629518392
 30
0.0
 11
41.4499602645779
 21
78.17490629518342
 31
0.0
  0
LINE
  5
157
330
1F
100
AcDbEntity
  8
0
  6
Continuous
 62
     7
100
AcDbLine
 10
41.4499602645779
 20
74.17490629518392
 30
0.0
 11
43.4499602645779
 21
74.17490629518412
 31
0.0
  0
LINE
  5
158
330
1F
100
AcDbEntity
  8
0
  6
Continuous
 62
     7
100
AcDbLine
 10
43.4499602645779
 20
78.17490629518413
 30
0.0
 11
41.4499602645779
 21
78.17490629518342
 31
0.0
  0
LINE
  5
159
330
1F
100
AcDbEntity
  8
0
  6
Continuous
 62
     7
100
AcDbLine
 10
52.4499602645779
 20
74.17490629518412
 30
0.0
 11
52.4499602645779
 21
74.67490629518412
 31
0.0
  0
LINE
  5
15A
330
1F
100
AcDbEntity
  8
0
  6
Continuous
 62
     7
100
AcDbLine
 10
63.67720160052983
 20
74.67490629518342
 30
0.0
 11
64.67720160052983
 21
74.67490629518342
 31
0.0
  0
LINE
  5
15B
330
1F
100
AcDbEntity
  8
0
  6
Continuous
 62
     7
100
AcDbLine
 10
52.9140618797158
 20
74.67490629518412
 30
0.0
 11
63.67720160052983
 21
74.67490629518342
 31
0.0
  0
LINE
  5
15C
330
1F
100
AcDbEntity
  8
0
  6
Continuous
 62
     7
100
AcDbLine
 10
51.9140618797158
 20
74.17490629518412
 30
0.0
 11
52.4499602645779
 21
74.17490629518412
 31
0.0
  0
LINE
  5
15D
330
1F
100
AcDbEntity
  8
0
  6
Continuous
 62
     7
100
AcDbLine
 10
52.4499602645779
 20
74.67490629518412
 30
0.0
 11
52.9140618797158
 21
74.67490629518412
 31
0.0
  0
LINE
  5
15E
330
1F
100
AcDbEntity
  8
0
  6
Continuous
 62
     7
100
AcDbLine
 10
64.67720160052983
 20
74.67490629518342
 30
0.0
 11
64.67720160052983
 21
78.17490629518342
 31
0.0
  0
LINE
  5
15F
330
1F
100
AcDbEntity
  8
0
  6
Continuous
 62
     7
100
AcDbLine
 10
51.9140618797158
 20
74.17490629518412
 30
0.0
 11
43.4499602645779
 21
74.17490629518412
 31
0.0
  0
LINE
  5
160
330
1F
100
AcDbEntity
  8
0
  6
Continuous
 62
     7
100
AcDbLine
 10
51.9140618797158
 20
78.17490629518413
 30
0.0
 11
43.4499602645779
 21
78.17490629518413
 31
0.0
  0
LINE
  5
161
330
1F
100
AcDbEntity
  8
0
  6
Continuous
 62
     7
100
AcDbLine
 10
64.67720160052983
 20
78.17490629518342
 30
0.0
 11
63.67720160052983
 21
78.17490629518342
 31
0.0
  0
LINE
  5
162
330
1F
100
AcDbEntity
  8
0
  6
Continuous
 62
     7
100
AcDbLine
 10
63.67720160052983
 20
78.17490629518342
 30
0.0
 11
52.9140618797158
 21
78.17490629518413
 31
0.0
  0
LINE
  5
163
330
1F
100
AcDbEntity
  8
0
  6
Continuous
 62
     7
100
AcDbLine
 10
52.4499602645779
 20
78.17490629518282
 30
0.0
 11
51.9140618797158
 21
78.17490629518413
 31
0.0
  0
LINE
  5
164
330
1F
100
AcDbEntity
  8
0
  6
Continuous
 62
     7
100
AcDbLine
 10
52.9140618797158
 20
78.17490629518413
 30
0.0
 11
52.4499602645779
 21
78.17490629518282
 31
0.0
  0
LINE
  5
165
330
1F
100
AcDbEntity
  8
0
  6
Continuous
 62
     7
100
AcDbLine
 10
52.4499602645779
 20
140.5749062951809
 30
0.0
 11
52.4499602645779
 21
142.6749062951826
 31
0.0
  0
LINE
  5
166
330
1F
100
AcDbEntity
  8
0
  6
Continuous
 62
     7
100
AcDbLine
 10
52.44996026457835
 20
78.17490629518413
 30
0.0
 11
52.4499602645779
 21
118.6749062951809
 31
0.0
  0
LINE
  5
167
330
1F
100
AcDbEntity
  8
0
  6
Continuous
 62
     7
100
AcDbLine
 10
52.4499602645779
 20
135.774906295181
 30
0.0
 11
52.4499602645779
 21
140.5749062951809
 31
0.0
  0
LINE
  5
168
330
1F
100
AcDbEntity
  8
0
  6
Continuous
 62
     7
100
AcDbLine
 10
50.4499602645779
 20
140.5749062951809
 30
0.0
 11
50.4499602645779
 21
144.1106685777517
 31
0.0
  0
LINE
  5
169
330
1F
100
AcDbEntity
  8
0
  6
Continuous
 62
     7
100
AcDbLine
 10
50.4499602645779
 20
132.0983913831124
 30
0.0
 11
50.4499602645779
 21
140.5749062951809
 31
0.0
  0
LINE
  5
16A
330
1F
100
AcDbEntity
  8
0
  6
Continuous
 62
     7
100
AcDbLine
 10
59.4499602645779
 20
142.6749062951789
 30
0.0
 11
58.4499602645779
 21
142.6749062951834
 31
0.0
  0
LINE
  5
16B
330
1F
100
AcDbEntity
  8
0
  6
Continuous
 62
     7
100
AcDbLine
 10
44.9499602645779
 20
149.3278730900436
 30
0.0
 11
44.9499602645779
 21
149.1919579433614
 31
0.0
  0
LINE
  5
16C
330
1F
100
AcDbEntity
  8
0
  6
Continuous
 62
     7
100
AcDbLine
 10
58.4499602645779
 20
142.6749062951834
 30
0.0
 11
52.4499602645779
 21
142.6749062951826
 31
0.0
  0
LINE
  5
16D
330
1F
100
AcDbEntity
  8
0
  6
Continuous
 62
     7
100
AcDbLine
 10
52.4499602645779
 20
142.6749062951826
 30
0.0
 11
52.4499602645779
 21
146.1569240477789
 31
0.0
  0
LINE
  5
16E
330
1F
100
AcDbEntity
  8
0
  6
Continuous
 62
     7
100
AcDbLine
 10
50.4499602645779
 20
140.5749062951809
 30
0.0
 11
52.4499602645779
 21
140.5749062951809
 31
0.0
  0
LINE
  5
16F
330
1F
100
AcDbEntity
  8
0
  6
Continuous
 62
     7
100
AcDbLine
 10
50.4499602645779
 20
135.774906295181
 30
0.0
 11
52.4499602645779
 21
135.774906295181
 31
0.0
  0
LINE
  5
170
330
1F
100
AcDbEntity
  8
0
  6
Continuous
 62
     7
100
AcDbLine
 10
44.9499602645779
 20
132.0983913831124
 30
0.0
 11
44.9499602645779
 21
149.1749062951802
 31
0.0
  0
LINE
  5
171
330
1F
100
AcDbEntity
  8
0
  6
Continuous
 62
     7
100
AcDbLine
 10
44.9499602645779
 20
149.1749062951802
 30
0.0
 11
44.9499602645779
 21
149.1919579433614
 31
0.0
  0
LINE
  5
172
330
1F
100
AcDbEntity
  8
0
  6
Continuous
 62
     7
100
AcDbLine
 10
44.9499602645779
 20
151.1395276928096
 30
0.0
 11
44.9499602645779
 21
150.5117873345555
 31
0.0
  0
LINE
  5
173
330
1F
100
AcDbEntity
  8
0
  6
Continuous
 62
     7
100
AcDbLine
 10
44.9499602645779
 20
152.6749062951802
 30
0.0
 11
44.9499602645779
 21
151.8652759679005
 31
0.0
  0
LINE
  5
174
330
1F
100
AcDbEntity
  8
0
  6
Continuous
 62
     7
100
AcDbLine
 10
74.9351544939239
 20
151.1395276928096
 30
0.0
 11
74.9351544939239
 21
151.2114616728435
 31
0.0
  0
LINE
  5
175
330
1F
100
AcDbEntity
  8
0
  6
Continuous
 62
     7
100
AcDbLine
 10
44.9499602645779
 20
152.6749062951802
 30
0.0
 11
74.9351544939239
 21
152.67490629518
 31
0.0
  0
LINE
  5
176
330
1F
100
AcDbEntity
  8
0
  6
Continuous
 62
     7
100
AcDbLine
 10
74.9351544939239
 20
152.67490629518
 30
0.0
 11
74.9351544939239
 21
152.7249062951801
 31
0.0
  0
LINE
  5
177
330
1F
100
AcDbEntity
  8
0
  6
Continuous
 62
     7
100
AcDbLine
 10
74.9351544939239
 20
152.67490629518
 30
0.0
 11
74.9351544939239
 21
151.8652759679005
 31
0.0
  0
LINE
  5
178
330
1F
100
AcDbEntity
  8
0
  6
Continuous
 62
     7
100
AcDbLine
 10
49.47404029730393
 20
152.7249062951802
 30
0.0
 11
49.38078919212178
 21
152.7675612876876
 31
0.0
  0
LINE
  5
179
330
1F
100
AcDbEntity
  8
0
  6
Continuous
 62
     7
100
AcDbLine
 10
72.7691313370338
 20
152.7675612876876
 30
0.0
 11
72.67588023185186
 21
152.7249062951802
 31
0.0
  0
LINE
  5
17A
330
1F
100
AcDbEntity
  8
0
  6
Continuous
 62
     7
100
AcDbLine
 10
44.9499602645779
 20
152.7249062951802
 30
0.0
 11
44.9499602645779
 21
152.6749062951802
 31
0.0
  0
LINE
  5
17B
330
1F
100
AcDbEntity
  8
0
  6
Continuous
 62
     7
100
AcDbLine
 10
49.50486883855484
 20
152.7108046800465
 30
0.0
 11
49.47404029730393
 21
152.7249062951802
 31
0.0
  0
LINE
  5
17C
330
1F
100
AcDbEntity
  8
0
  6
Continuous
 62
     7
100
AcDbLine
 10
72.67588023185186
 20
152.7249062951802
 30
0.0
 11
72.64505169060095
 21
152.7108046800465
 31
0.0
  0
LINE
  5
17D
330
1F
100
AcDbEntity
  8
0
  6
Continuous
 62
     7
100
AcDbLine
 10
44.9499602645779
 20
151.2114616728435
 30
0.0
 11
44.9499602645779
 21
151.1395276928096
 31
0.0
  0
LINE
  5
17E
330
1F
100
AcDbEntity
  8
0
  6
Continuous
 62
     7
100
AcDbLine
 10
44.9499602645779
 20
151.8652759679005
 30
0.0
 11
44.9499602645779
 21
151.2114616728435
 31
0.0
  0
LINE
  5
17F
330
1F
100
AcDbEntity
  8
0
  6
Continuous
 62
     7
100
AcDbLine
 10
44.9499602645779
 20
150.5117873345555
 30
0.0
 11
44.9499602645779
 21
150.0825679044536
 31
0.0
  0
LINE
  5
180
330
1F
100
AcDbEntity
  8
0
  6
Continuous
 62
     7
100
AcDbLine
 10
49.50486883855484
 20
152.7108046800465
 30
0.0
 11
72.64505169060095
 21
152.7108046800465
 31
0.0
  0
LINE
  5
181
330
1F
100
AcDbEntity
  8
0
  6
Continuous
 62
     7
100
AcDbLine
 10
44.9499602645779
 20
152.7249062951802
 30
0.0
 11
49.47404029730393
 21
152.7249062951802
 31
0.0
  0
LINE
  5
182
330
1F
100
AcDbEntity
  8
0
  6
Continuous
 62
     7
100
AcDbLine
 10
49.38078919212178
 20
152.7675612876876
 30
0.0
 11
72.7691313370338
 21
152.7675612876876
 31
0.0
  0
LINE
  5
183
330
1F
100
AcDbEntity
  8
0
  6
Continuous
 62
     7
100
AcDbLine
 10
44.9499602645779
 20
151.1395276928096
 30
0.0
 11
74.9351544939239
 21
151.1395276928096
 31
0.0
  0
LINE
  5
184
330
1F
100
AcDbEntity
  8
0
  6
Continuous
 62
     7
100
AcDbLine
 10
44.9499602645779
 20
151.8652759679005
 30
0.0
 11
74.9351544939239
 21
151.8652759679005
 31
0.0
  0
LINE
  5
185
330
1F
100
AcDbEntity
  8
0
  6
Continuous
 62
     7
100
AcDbLine
 10
52.4499602645779
 20
118.6749062951809
 30
0.0
 11
52.4499602645779
 21
135.774906295181
 31
0.0
  0
LINE
  5
186
330
1F
100
AcDbEntity
  8
0
  6
Continuous
 62
     7
100
AcDbLine
 10
41.4499602645779
 20
78.17490629518342
 30
0.0
 11
41.4499602645779
 21
118.6749062951809
 31
0.0
  0
LINE
  5
187
330
1F
100
AcDbEntity
  8
0
  6
Continuous
 62
     7
100
AcDbLine
 10
119.9499602645779
 20
151.2114616728435
 30
0.0
 11
119.9499602645779
 21
151.1395276928096
 31
0.0
  0
LINE
  5
188
330
1F
100
AcDbEntity
  8
0
  6
Continuous
 62
     7
100
AcDbLine
 10
89.9647660352328
 20
151.2114616728435
 30
0.0
 11
89.9647660352328
 21
151.1395276928149
 31
0.0
  0
LINE
  5
189
330
1F
100
AcDbEntity
  8
0
  6
Continuous
 62
     7
100
AcDbLine
 10
119.9499602645779
 20
149.1749062951801
 30
0.0
 11
44.9499602645779
 21
149.1749062951802
 31
0.0
  0
LINE
  5
18A
330
1F
100
AcDbEntity
  8
0
  6
Continuous
 62
     7
100
AcDbLine
 10
119.9499602645779
 20
149.1919579433614
 30
0.0
 11
119.9499602645779
 21
149.1749062951801
 31
0.0
  0
LINE
  5
18B
330
1F
100
AcDbEntity
  8
0
  6
Continuous
 62
     7
100
AcDbLine
 10
53.4499602645779
 20
146.2810561709333
 30
0.0
 11
111.4499602645779
 21
146.2810561709333
 31
0.0
  0
LINE
  5
18C
330
1F
100
AcDbEntity
  8
0
  6
Continuous
 62
     7
100
AcDbLine
 10
44.9499602645779
 20
149.5970579496788
 30
0.0
 11
44.9499602645779
 21
149.4256878501169
 31
0.0
  0
LINE
  5
18D
330
1F
100
AcDbEntity
  8
0
  6
Continuous
 62
     7
100
AcDbLine
 10
44.9499602645779
 20
149.9942731451677
 30
0.0
 11
44.9499602645779
 21
149.5970579496788
 31
0.0
  0
LINE
  5
18E
330
1F
100
AcDbEntity
  8
0
  6
Continuous
 62
     7
100
AcDbLine
 10
44.9499602645779
 20
150.5117873345555
 30
0.0
 11
119.9499602645779
 21
150.5117873345555
 31
0.0
  0
LINE
  5
18F
330
1F
100
AcDbEntity
  8
0
  6
Continuous
 62
     7
100
AcDbLine
 10
44.9499602645779
 20
150.0825679044536
 30
0.0
 11
44.9499602645779
 21
149.9942731451677
 31
0.0
  0
LINE
  5
190
330
1F
100
AcDbEntity
  8
0
  6
Continuous
 62
     7
100
AcDbLine
 10
44.9499602645779
 20
149.4256878501169
 30
0.0
 11
44.9499602645779
 21
149.3278730900436
 31
0.0
  0
LINE
  5
191
330
1F
100
AcDbEntity
  8
0
  6
Continuous
 62
     7
100
AcDbLine
 10
119.9499602645779
 20
150.0825679044536
 30
0.0
 11
119.9499602645779
 21
149.9942731451677
 31
0.0
  0
LINE
  5
192
330
1F
100
AcDbEntity
  8
0
  6
Continuous
 62
     7
100
AcDbLine
 10
119.9499602645779
 20
149.5970579496788
 30
0.0
 11
119.9499602645779
 21
149.4256878501169
 31
0.0
  0
LINE
  5
193
330
1F
100
AcDbEntity
  8
0
  6
Continuous
 62
     7
100
AcDbLine
 10
119.9499602645779
 20
149.9942731451677
 30
0.0
 11
44.9499602645779
 21
149.9942731451677
 31
0.0
  0
LINE
  5
194
330
1F
100
AcDbEntity
  8
0
  6
Continuous
 62
     7
100
AcDbLine
 10
119.9499602645779
 20
149.9942731451677
 30
0.0
 11
119.9499602645779
 21
149.5970579496788
 31
0.0
  0
LINE
  5
195
330
1F
100
AcDbEntity
  8
0
  6
Continuous
 62
     7
100
AcDbLine
 10
44.9499602645779
 20
149.5970579496788
 30
0.0
 11
119.9499602645779
 21
149.5970579496788
 31
0.0
  0
LINE
  5
196
330
1F
100
AcDbEntity
  8
0
  6
Continuous
 62
     7
100
AcDbLine
 10
119.9499602645779
 20
149.4256878501169
 30
0.0
 11
119.9499602645779
 21
149.3278730900435
 31
0.0
  0
LINE
  5
197
330
1F
100
AcDbEntity
  8
0
  6
Continuous
 62
     7
100
AcDbLine
 10
119.9499602645779
 20
149.3278730900435
 30
0.0
 11
119.9499602645779
 21
149.1919579433614
 31
0.0
  0
LINE
  5
198
330
1F
100
AcDbEntity
  8
0
  6
Continuous
 62
     7
100
AcDbLine
 10
119.9499602645779
 20
151.1395276928096
 30
0.0
 11
119.9499602645779
 21
150.5117873345555
 31
0.0
  0
LINE
  5
199
330
1F
100
AcDbEntity
  8
0
  6
Continuous
 62
     7
100
AcDbLine
 10
119.9499602645779
 20
150.5117873345555
 30
0.0
 11
119.9499602645779
 21
150.0825679044536
 31
0.0
  0
LINE
  5
19A
330
1F
100
AcDbEntity
  8
0
  6
Continuous
 62
     7
100
AcDbLine
 10
44.9499602645779
 20
150.0825679044536
 30
0.0
 11
119.9499602645779
 21
150.0825679044536
 31
0.0
  0
LINE
  5
19B
330
1F
100
AcDbEntity
  8
0
  6
Continuous
 62
     7
100
AcDbLine
 10
44.9499602645779
 20
149.1919579433614
 30
0.0
 11
119.9499602645779
 21
149.1919579433614
 31
0.0
  0
LINE
  5
19C
330
1F
100
AcDbEntity
  8
0
  6
Continuous
 62
     7
100
AcDbLine
 10
44.9499602645779
 20
149.3278730900436
 30
0.0
 11
119.9499602645779
 21
149.3278730900435
 31
0.0
  0
LINE
  5
19D
330
1F
100
AcDbEntity
  8
0
  6
Continuous
 62
     7
100
AcDbLine
 10
44.9499602645779
 20
149.4256878501169
 30
0.0
 11
119.9499602645779
 21
149.4256878501169
 31
0.0
  0
LINE
  5
19E
330
1F
100
AcDbEntity
  8
0
  6
Continuous
 62
     7
100
AcDbLine
 10
44.9499602645779
 20
151.2114616728435
 30
0.0
 11
74.9351544939239
 21
151.2114616728435
 31
0.0
  0
LINE
  5
19F
330
1F
100
AcDbEntity
  8
0
  6
Continuous
 62
     7
100
AcDbLine
 10
105.4499602645779
 20
142.6749062951785
 30
0.0
 11
59.4499602645779
 21
142.6749062951789
 31
0.0
  0
LINE
  5
1A0
330
1F
100
AcDbEntity
  8
0
  6
Continuous
 62
     7
100
AcDbLine
 10
106.4499602645779
 20
142.6749062951834
 30
0.0
 11
105.4499602645779
 21
142.6749062951785
 31
0.0
  0
LINE
  5
1A1
330
1F
100
AcDbEntity
  8
0
  6
Continuous
 62
     7
100
AcDbLine
 10
114.4499602645779
 20
135.774906295181
 30
0.0
 11
112.4499602645779
 21
135.774906295181
 31
0.0
  0
LINE
  5
1A2
330
1F
100
AcDbEntity
  8
0
  6
Continuous
 62
     7
100
AcDbLine
 10
112.4499602645779
 20
142.6749062951826
 30
0.0
 11
112.4499602645779
 21
146.1569240477789
 31
0.0
  0
LINE
  5
1A3
330
1F
100
AcDbEntity
  8
0
  6
Continuous
 62
     7
100
AcDbLine
 10
114.4499602645779
 20
140.5749062951809
 30
0.0
 11
112.4499602645779
 21
140.5749062951809
 31
0.0
  0
LINE
  5
1A4
330
1F
100
AcDbEntity
  8
0
  6
Continuous
 62
     7
100
AcDbLine
 10
112.4499602645779
 20
142.6749062951826
 30
0.0
 11
106.4499602645779
 21
142.6749062951834
 31
0.0
  0
LINE
  5
1A5
330
1F
100
AcDbEntity
  8
0
  6
Continuous
 62
     7
100
AcDbLine
 10
114.4499602645779
 20
140.5749062951809
 30
0.0
 11
114.4499602645779
 21
132.0983913831123
 31
0.0
  0
LINE
  5
1A6
330
1F
100
AcDbEntity
  8
0
  6
Continuous
 62
     7
100
AcDbLine
 10
123.4499602645779
 20
118.6749062951809
 30
0.0
 11
112.4499602645779
 21
118.6749062951809
 31
0.0
  0
LINE
  5
1A7
330
1F
100
AcDbEntity
  8
0
  6
Continuous
 62
     7
100
AcDbLine
 10
119.9499602645779
 20
162.8076119971546
 30
0.0
 11
119.9499602645779
 21
162.5697244986785
 31
0.0
  0
LINE
  5
1A8
330
1F
100
AcDbEntity
  8
0
  6
Continuous
 62
     7
100
AcDbLine
 10
119.9499602645779
 20
162.5697244986785
 30
0.0
 11
119.9499602645779
 21
162.1112429682752
 31
0.0
  0
LINE
  5
1A9
330
1F
100
AcDbEntity
  8
0
  6
Continuous
 62
     7
100
AcDbLine
 10
119.9499602645779
 20
163.1067827763711
 30
0.0
 11
119.9499602645779
 21
162.9037381667485
 31
0.0
  0
LINE
  5
1AA
330
1F
100
AcDbEntity
  8
0
  6
Continuous
 62
     7
100
AcDbLine
 10
119.9499602645779
 20
151.8652759679005
 30
0.0
 11
119.9499602645779
 21
151.2114616728435
 31
0.0
  0
LINE
  5
1AB
330
1F
100
AcDbEntity
  8
0
  6
Continuous
 62
     7
100
AcDbLine
 10
119.9499602645779
 20
152.6749062951801
 30
0.0
 11
119.9499602645779
 21
151.8652759679005
 31
0.0
  0
LINE
  5
1AC
330
1F
100
AcDbEntity
  8
0
  6
Continuous
 62
     7
100
AcDbLine
 10
119.9499602645779
 20
154.4814530259826
 30
0.0
 11
119.9499602645779
 21
153.5526601412688
 31
0.0
  0
LINE
  5
1AD
330
1F
100
AcDbEntity
  8
0
  6
Continuous
 62
     7
100
AcDbLine
 10
114.4499602645779
 20
144.1106685777517
 30
0.0
 11
114.4499602645779
 21
140.5749062951809
 31
0.0
  0
LINE
  5
1AE
330
1F
100
AcDbEntity
  8
0
  6
Continuous
 62
     7
100
AcDbLine
 10
115.4258802318519
 20
152.7249062951801
 30
0.0
 11
119.9499602645779
 21
152.7249062951801
 31
0.0
  0
LINE
  5
1AF
330
1F
100
AcDbEntity
  8
0
  6
Continuous
 62
     7
100
AcDbLine
 10
119.9499602645779
 20
162.8076119971546
 30
0.0
 11
119.9499602645779
 21
162.9037381667485
 31
0.0
  0
LINE
  5
1B0
330
1F
100
AcDbEntity
  8
0
  6
Continuous
 62
     7
100
AcDbLine
 10
119.9499602645779
 20
152.7249062951801
 30
0.0
 11
119.9499602645779
 21
152.6749062951801
 31
0.0
  0
LINE
  5
1B1
330
1F
100
AcDbEntity
  8
0
  6
Continuous
 62
     7
100
AcDbLine
 10
119.9499602645779
 20
154.5056452155424
 30
0.0
 11
119.9499602645779
 21
154.4814530259826
 31
0.0
  0
LINE
  5
1B2
330
1F
100
AcDbEntity
  8
0
  6
Continuous
 62
     7
100
AcDbLine
 10
119.9499602645779
 20
159.199667208025
 30
0.0
 11
119.9499602645779
 21
159.2435043227038
 31
0.0
  0
LINE
  5
1B3
330
1F
100
AcDbEntity
  8
0
  6
Continuous
 62
     7
100
AcDbLine
 10
44.9499602645779
 20
163.1749062951804
 30
0.0
 11
119.9499602645779
 21
163.1749062951802
 31
0.0
  0
LINE
  5
1B4
330
1F
100
AcDbEntity
  8
0
  6
Continuous
 62
     7
100
AcDbLine
 10
44.9499602645779
 20
163.1067827763714
 30
0.0
 11
44.9499602645779
 21
162.9037381667485
 31
0.0
  0
LINE
  5
1B5
330
1F
100
AcDbEntity
  8
0
  6
Continuous
 62
     7
100
AcDbLine
 10
119.9499602645779
 20
163.1749062951802
 30
0.0
 11
119.9499602645779
 21
163.1067827763711
 31
0.0
  0
LINE
  5
1B6
330
1F
100
AcDbEntity
  8
0
  6
Continuous
 62
     7
100
AcDbLine
 10
44.9499602645779
 20
163.1067827763714
 30
0.0
 11
119.9499602645779
 21
163.1067827763711
 31
0.0
  0
LINE
  5
1B7
330
1F
100
AcDbEntity
  8
0
  6
Continuous
 62
     7
100
AcDbLine
 10
44.9499602645779
 20
162.9037381667485
 30
0.0
 11
119.9499602645779
 21
162.9037381667485
 31
0.0
  0
LINE
  5
1B8
330
1F
100
AcDbEntity
  8
0
  6
Continuous
 62
     7
100
AcDbLine
 10
81.03545210506292
 20
159.9249062951842
 30
0.0
 11
80.51583686279179
 21
159.9249062951839
 31
0.0
  0
LINE
  5
1B9
330
1F
100
AcDbEntity
  8
0
  6
Continuous
 62
     7
100
AcDbLine
 10
86.75121977004079
 20
159.9249062951846
 30
0.0
 11
85.6542542585799
 21
159.9249062951843
 31
0.0
  0
LINE
  5
1BA
330
1F
100
AcDbEntity
  8
0
  6
Continuous
 62
     7
100
AcDbLine
 10
89.9647660352328
 20
160.0892566194754
 30
0.0
 11
119.9499602645779
 21
160.0892566194754
 31
0.0
  0
LINE
  5
1BB
330
1F
100
AcDbEntity
  8
0
  6
Continuous
 62
     7
100
AcDbLine
 10
89.9647660352328
 20
160.7919074790564
 30
0.0
 11
89.9647660352328
 21
160.8588205396977
 31
0.0
  0
LINE
  5
1BC
330
1F
100
AcDbEntity
  8
0
  6
Continuous
 62
     7
100
AcDbLine
 10
74.9351544939239
 20
160.8588205396977
 30
0.0
 11
44.9499602645779
 21
160.8588205396923
 31
0.0
  0
LINE
  5
1BD
330
1F
100
AcDbEntity
  8
0
  6
Continuous
 62
     7
100
AcDbLine
 10
89.9647660352328
 20
160.8588205396977
 30
0.0
 11
74.9351544939239
 21
160.8588205396977
 31
0.0
  0
LINE
  5
1BE
330
1F
100
AcDbEntity
  8
0
  6
Continuous
 62
     7
100
AcDbLine
 10
119.9499602645779
 20
160.8588205396923
 30
0.0
 11
89.9647660352328
 21
160.8588205396977
 31
0.0
  0
LINE
  5
1BF
330
1F
100
AcDbEntity
  8
0
  6
Continuous
 62
     7
100
AcDbLine
 10
44.9499602645779
 20
160.0892566194755
 30
0.0
 11
74.9351544939239
 21
160.0892566194754
 31
0.0
  0
LINE
  5
1C0
330
1F
100
AcDbEntity
  8
0
  6
Continuous
 62
     7
100
AcDbLine
 10
74.9351544939239
 20
160.7919074790564
 30
0.0
 11
44.9499602645779
 21
160.7919074790564
 31
0.0
  0
LINE
  5
1C1
330
1F
100
AcDbEntity
  8
0
  6
Continuous
 62
     7
100
AcDbLine
 10
89.46476603523189
 20
159.9249062951847
 30
0.0
 11
88.8874157660419
 21
159.9249062951843
 31
0.0
  0
LINE
  5
1C2
330
1F
100
AcDbEntity
  8
0
  6
Continuous
 62
     7
100
AcDbLine
 10
88.36780052377077
 20
159.9249062951847
 30
0.0
 11
87.27083501231078
 21
159.9249062951843
 31
0.0
  0
LINE
  5
1C3
330
1F
100
AcDbEntity
  8
0
  6
Continuous
 62
     7
100
AcDbLine
 10
85.13463901630877
 20
159.9249062951843
 30
0.0
 11
83.34996026457776
 21
159.9249062951842
 31
0.0
  0
LINE
  5
1C4
330
1F
100
AcDbEntity
  8
0
  6
Continuous
 62
     7
100
AcDbLine
 10
82.59429783187494
 20
159.9249062951843
 30
0.0
 11
82.07468258960381
 21
159.9249062951841
 31
0.0
  0
LINE
  5
1C5
330
1F
100
AcDbEntity
  8
0
  6
Continuous
 62
     7
100
AcDbLine
 10
79.47660637825089
 20
159.9249062951842
 30
0.0
 11
75.4351544939239
 21
159.9249062951826
 31
0.0
  0
LINE
  5
1C6
330
1F
100
AcDbEntity
  8
0
  6
Continuous
 62
     7
100
AcDbLine
 10
44.9499602645779
 20
161.5372173970132
 30
0.0
 11
119.9499602645779
 21
161.5372173970129
 31
0.0
  0
LINE
  5
1C7
330
1F
100
AcDbEntity
  8
0
  6
Continuous
 62
     7
100
AcDbLine
 10
83.34996026457776
 20
157.7337520219968
 30
0.0
 11
83.34996026457776
 21
159.9249062951842
 31
0.0
  0
LINE
  5
1C8
330
1F
100
AcDbEntity
  8
0
  6
Continuous
 62
     7
100
AcDbLine
 10
89.46476603523189
 20
158.9249062951851
 30
0.0
 11
89.46476603523189
 21
159.9249062951847
 31
0.0
  0
LINE
  5
1C9
330
1F
100
AcDbEntity
  8
0
  6
Continuous
 62
     7
100
AcDbLine
 10
89.9647660352328
 20
160.0892566194754
 30
0.0
 11
89.9647660352328
 21
159.2435043227038
 31
0.0
  0
LINE
  5
1CA
330
1F
100
AcDbEntity
  8
0
  6
Continuous
 62
     7
100
AcDbLine
 10
119.9499602645779
 20
160.0892566194754
 30
0.0
 11
119.9499602645779
 21
159.2435043227038
 31
0.0
  0
LINE
  5
1CB
330
1F
100
AcDbEntity
  8
0
  6
Continuous
 62
     7
100
AcDbLine
 10
119.9499602645779
 20
160.7919074790564
 30
0.0
 11
119.9499602645779
 21
160.8588205396923
 31
0.0
  0
LINE
  5
1CC
330
1F
100
AcDbEntity
  8
0
  6
Continuous
 62
     7
100
AcDbLine
 10
119.9499602645779
 20
161.5372173970129
 30
0.0
 11
119.9499602645779
 21
160.8588205396923
 31
0.0
  0
LINE
  5
1CD
330
1F
100
AcDbEntity
  8
0
  6
Continuous
 62
     7
100
AcDbLine
 10
119.9499602645779
 20
162.0264381586595
 30
0.0
 11
119.9499602645779
 21
161.5372173970129
 31
0.0
  0
LINE
  5
1CE
330
1F
100
AcDbEntity
  8
0
  6
Continuous
 62
     7
100
AcDbLine
 10
119.9499602645779
 20
160.7919074790564
 30
0.0
 11
119.9499602645779
 21
160.0892566194754
 31
0.0
  0
LINE
  5
1CF
330
1F
100
AcDbEntity
  8
0
  6
Continuous
 62
     7
100
AcDbLine
 10
119.9499602645779
 20
160.7919074790564
 30
0.0
 11
89.9647660352328
 21
160.7919074790564
 31
0.0
  0
LINE
  5
1D0
330
1F
100
AcDbEntity
  8
0
  6
Continuous
 62
     7
100
AcDbLine
 10
89.46476603523189
 20
158.9249062951851
 30
0.0
 11
88.8874157660419
 21
159.9249062951843
 31
0.0
  0
LINE
  5
1D1
330
1F
100
AcDbEntity
  8
0
  6
Continuous
 62
     7
100
AcDbLine
 10
119.9499602645779
 20
159.199667208025
 30
0.0
 11
119.9499602645779
 21
158.3380252558048
 31
0.0
  0
LINE
  5
1D2
330
1F
100
AcDbEntity
  8
0
  6
Continuous
 62
     7
100
AcDbLine
 10
119.9499602645779
 20
158.3380252558048
 30
0.0
 11
119.9499602645779
 21
157.3904435388487
 31
0.0
  0
LINE
  5
1D3
330
1F
100
AcDbEntity
  8
0
  6
Continuous
 62
     7
100
AcDbLine
 10
119.9499602645779
 20
162.0264381586595
 30
0.0
 11
119.9499602645779
 21
162.1112429682752
 31
0.0
  0
LINE
  5
1D4
330
1F
100
AcDbEntity
  8
0
  6
Continuous
 62
     7
100
AcDbLine
 10
119.9499602645779
 20
162.0264381586595
 30
0.0
 11
44.9499602645779
 21
162.0264381586597
 31
0.0
  0
LINE
  5
1D5
330
1F
100
AcDbEntity
  8
0
  6
Continuous
 62
     7
100
AcDbLine
 10
44.9499602645779
 20
162.8076119971546
 30
0.0
 11
44.9499602645779
 21
162.5697244986785
 31
0.0
  0
LINE
  5
1D6
330
1F
100
AcDbEntity
  8
0
  6
Continuous
 62
     7
100
AcDbLine
 10
74.9351544939239
 20
160.0892566194754
 30
0.0
 11
74.9351544939239
 21
159.2435043227038
 31
0.0
  0
LINE
  5
1D7
330
1F
100
AcDbEntity
  8
0
  6
Continuous
 62
     7
100
AcDbLine
 10
74.9351544939239
 20
158.3380252558048
 30
0.0
 11
74.9351544939239
 21
157.3904435388487
 31
0.0
  0
LINE
  5
1D8
330
1F
100
AcDbEntity
  8
0
  6
Continuous
 62
     7
100
AcDbLine
 10
85.6253867451208
 20
158.174906295185
 30
0.0
 11
85.24755552876883
 21
158.8293291585908
 31
0.0
  0
LINE
  5
1D9
330
1F
100
AcDbEntity
  8
0
  6
Continuous
 62
     7
100
AcDbLine
 10
44.9499602645779
 20
159.199667208025
 30
0.0
 11
74.9351544939239
 21
159.199667208025
 31
0.0
  0
LINE
  5
1DA
330
1F
100
AcDbEntity
  8
0
  6
Continuous
 62
     7
100
AcDbLine
 10
44.9499602645779
 20
157.3904435388487
 30
0.0
 11
74.9351544939239
 21
157.3904435388487
 31
0.0
  0
LINE
  5
1DB
330
1F
100
AcDbEntity
  8
0
  6
Continuous
 62
     7
100
AcDbLine
 10
89.9647660352328
 20
158.3380252558048
 30
0.0
 11
89.9647660352328
 21
157.3904435388487
 31
0.0
  0
LINE
  5
1DC
330
1F
100
AcDbEntity
  8
0
  6
Continuous
 62
     7
100
AcDbLine
 10
89.9647660352328
 20
158.3380252558048
 30
0.0
 11
119.9499602645779
 21
158.3380252558048
 31
0.0
  0
LINE
  5
1DD
330
1F
100
AcDbEntity
  8
0
  6
Continuous
 62
     7
100
AcDbLine
 10
89.9647660352328
 20
157.3904435388487
 30
0.0
 11
119.9499602645779
 21
157.3904435388487
 31
0.0
  0
LINE
  5
1DE
330
1F
100
AcDbEntity
  8
0
  6
Continuous
 62
     7
100
AcDbLine
 10
89.9647660352328
 20
159.2435043227038
 30
0.0
 11
119.9499602645779
 21
159.2435043227038
 31
0.0
  0
LINE
  5
1DF
330
1F
100
AcDbEntity
  8
0
  6
Continuous
 62
     7
100
AcDbLine
 10
44.9499602645779
 20
162.5697244986785
 30
0.0
 11
119.9499602645779
 21
162.5697244986785
 31
0.0
  0
LINE
  5
1E0
330
1F
100
AcDbEntity
  8
0
  6
Continuous
 62
     7
100
AcDbLine
 10
119.9499602645779
 20
162.8076119971546
 30
0.0
 11
44.9499602645779
 21
162.8076119971546
 31
0.0
  0
LINE
  5
1E1
330
1F
100
AcDbEntity
  8
0
  6
Continuous
 62
     7
100
AcDbLine
 10
44.9499602645779
 20
162.1112429682753
 30
0.0
 11
119.9499602645779
 21
162.1112429682752
 31
0.0
  0
LINE
  5
1E2
330
1F
100
AcDbEntity
  8
0
  6
Continuous
 62
     7
100
AcDbLine
 10
44.9499602645779
 20
159.199667208025
 30
0.0
 11
44.9499602645779
 21
159.2435043227038
 31
0.0
  0
LINE
  5
1E3
330
1F
100
AcDbEntity
  8
0
  6
Continuous
 62
     7
100
AcDbLine
 10
44.9499602645779
 20
160.7919074790564
 30
0.0
 11
44.9499602645779
 21
160.8588205396923
 31
0.0
  0
LINE
  5
1E4
330
1F
100
AcDbEntity
  8
0
  6
Continuous
 62
     7
100
AcDbLine
 10
74.9351544939239
 20
160.8588205396977
 30
0.0
 11
74.9351544939239
 21
160.7919074790564
 31
0.0
  0
LINE
  5
1E5
330
1F
100
AcDbEntity
  8
0
  6
Continuous
 62
     7
100
AcDbLine
 10
74.9351544939239
 20
159.2435043227038
 30
0.0
 11
74.9351544939239
 21
159.199667208025
 31
0.0
  0
LINE
  5
1E6
330
1F
100
AcDbEntity
  8
0
  6
Continuous
 62
     7
100
AcDbLine
 10
44.9499602645779
 20
159.2435043227038
 30
0.0
 11
74.9351544939239
 21
159.2435043227038
 31
0.0
  0
LINE
  5
1E7
330
1F
100
AcDbEntity
  8
0
  6
Continuous
 62
     7
100
AcDbLine
 10
44.9499602645779
 20
162.0264381586597
 30
0.0
 11
44.9499602645779
 21
162.1112429682753
 31
0.0
  0
LINE
  5
1E8
330
1F
100
AcDbEntity
  8
0
  6
Continuous
 62
     7
100
AcDbLine
 10
44.9499602645779
 20
158.3380252558049
 30
0.0
 11
74.9351544939239
 21
158.3380252558048
 31
0.0
  0
LINE
  5
1E9
330
1F
100
AcDbEntity
  8
0
  6
Continuous
 62
     7
100
AcDbLine
 10
85.24755552876883
 20
158.8293291585908
 30
0.0
 11
83.34996026457776
 21
157.7337520219968
 31
0.0
  0
LINE
  5
1EA
330
1F
100
AcDbEntity
  8
0
  6
Continuous
 62
     7
100
AcDbLine
 10
88.36780052377077
 20
159.9249062951847
 30
0.0
 11
89.46476603523189
 21
158.024906295185
 31
0.0
  0
LINE
  5
1EB
330
1F
100
AcDbEntity
  8
0
  6
Continuous
 62
     7
100
AcDbLine
 10
79.2456662705759
 20
152.4249062951845
 30
0.0
 11
78.14870075911591
 21
152.4249062951843
 31
0.0
  0
LINE
  5
1EC
330
1F
100
AcDbEntity
  8
0
  6
Continuous
 62
     7
100
AcDbLine
 10
78.49511092062886
 20
155.5249062951841
 30
0.0
 11
80.22716172819793
 21
152.5249062951844
 31
0.0
  0
LINE
  5
1ED
330
1F
100
AcDbEntity
  8
0
  6
Continuous
 62
     7
100
AcDbLine
 10
76.0125047631139
 20
152.4249062951845
 30
0.0
 11
75.4351544939239
 21
152.4249062951842
 31
0.0
  0
LINE
  5
1EE
330
1F
100
AcDbEntity
  8
0
  6
Continuous
 62
     7
100
AcDbLine
 10
75.4351544939239
 20
152.4249062951842
 30
0.0
 11
75.4351544939239
 21
153.4249062951845
 31
0.0
  0
LINE
  5
1EF
330
1F
100
AcDbEntity
  8
0
  6
Continuous
 62
     7
100
AcDbLine
 10
75.4351544939239
 20
153.4249062951845
 30
0.0
 11
76.0125047631139
 21
152.4249062951845
 31
0.0
  0
LINE
  5
1F0
330
1F
100
AcDbEntity
  8
0
  6
Continuous
 62
     7
100
AcDbLine
 10
82.82523793955176
 20
152.4249062951851
 30
0.0
 11
82.30562269728176
 21
152.4249062951849
 31
0.0
  0
LINE
  5
1F1
330
1F
100
AcDbEntity
  8
0
  6
Continuous
 62
     7
100
AcDbLine
 10
83.92220345101174
 20
157.0249062951848
 30
0.0
 11
81.26639221273973
 21
152.424906295185
 31
0.0
  0
LINE
  5
1F2
330
1F
100
AcDbEntity
  8
0
  6
Continuous
 62
     7
100
AcDbLine
 10
89.46476603523189
 20
152.4249062951845
 30
0.0
 11
85.36557912398581
 21
152.4249062951845
 31
0.0
  0
LINE
  5
1F3
330
1F
100
AcDbEntity
  8
0
  6
Continuous
 62
     7
100
AcDbLine
 10
85.36557912398581
 20
152.4249062951845
 30
0.0
 11
85.88519436625694
 21
153.3249062951856
 31
0.0
  0
LINE
  5
1F4
330
1F
100
AcDbEntity
  8
0
  6
Continuous
 62
     7
100
AcDbLine
 10
77.62908551684478
 20
152.4249062951846
 30
0.0
 11
76.53212000538389
 21
152.4249062951845
 31
0.0
  0
LINE
  5
1F5
330
1F
100
AcDbEntity
  8
0
  6
Continuous
 62
     7
100
AcDbLine
 10
76.53212000538389
 20
152.4249062951845
 30
0.0
 11
75.4351544939239
 21
154.324906295184
 31
0.0
  0
LINE
  5
1F6
330
1F
100
AcDbEntity
  8
0
  6
Continuous
 62
     7
100
AcDbLine
 10
75.4351544939239
 20
156.2249062951838
 30
0.0
 11
77.62908551684478
 21
152.4249062951846
 31
0.0
  0
LINE
  5
1F7
330
1F
100
AcDbEntity
  8
0
  6
Continuous
 62
     7
100
AcDbLine
 10
80.34263178203679
 20
152.5249062951846
 30
0.0
 11
80.22716172819793
 21
152.5249062951844
 31
0.0
  0
LINE
  5
1F8
330
1F
100
AcDbEntity
  8
0
  6
Continuous
 62
     7
100
AcDbLine
 10
81.26639221273973
 20
152.424906295185
 30
0.0
 11
79.7652815128468
 21
152.4249062951849
 31
0.0
  0
LINE
  5
1F9
330
1F
100
AcDbEntity
  8
0
  6
Continuous
 62
     7
100
AcDbLine
 10
80.34263178203679
 20
152.5249062951846
 30
0.0
 11
80.80451199738792
 21
153.3249062951848
 31
0.0
  0
LINE
  5
1FA
330
1F
100
AcDbEntity
  8
0
  6
Continuous
 62
     7
100
AcDbLine
 10
44.9499602645779
 20
154.4814530259826
 30
0.0
 11
44.9499602645779
 21
153.5526601412688
 31
0.0
  0
LINE
  5
1FB
330
1F
100
AcDbEntity
  8
0
  6
Continuous
 62
     7
100
AcDbLine
 10
44.9499602645779
 20
153.5526601412688
 30
0.0
 11
44.9499602645779
 21
152.7249062951802
 31
0.0
  0
LINE
  5
1FC
330
1F
100
AcDbEntity
  8
0
  6
Continuous
 62
     7
100
AcDbLine
 10
44.9499602645779
 20
154.5056452155425
 30
0.0
 11
44.9499602645779
 21
154.4814530259826
 31
0.0
  0
LINE
  5
1FD
330
1F
100
AcDbEntity
  8
0
  6
Continuous
 62
     7
100
AcDbLine
 10
44.9499602645779
 20
155.4432070523067
 30
0.0
 11
44.9499602645779
 21
154.5056452155425
 31
0.0
  0
LINE
  5
1FE
330
1F
100
AcDbEntity
  8
0
  6
Continuous
 62
     7
100
AcDbLine
 10
44.9499602645779
 20
156.4192027720977
 30
0.0
 11
44.9499602645779
 21
155.4432070523067
 31
0.0
  0
LINE
  5
1FF
330
1F
100
AcDbEntity
  8
0
  6
Continuous
 62
     7
100
AcDbLine
 10
44.9499602645779
 20
154.4814530259826
 30
0.0
 11
74.9351544939239
 21
154.4814530259826
 31
0.0
  0
LINE
  5
200
330
1F
100
AcDbEntity
  8
0
  6
Continuous
 62
     7
100
AcDbLine
 10
44.9499602645779
 20
153.5526601412688
 30
0.0
 11
74.9351544939239
 21
153.5526601412688
 31
0.0
  0
LINE
  5
201
330
1F
100
AcDbEntity
  8
0
  6
Continuous
 62
     7
100
AcDbLine
 10
74.9351544939239
 20
155.4432070523066
 30
0.0
 11
44.9499602645779
 21
155.4432070523067
 31
0.0
  0
LINE
  5
202
330
1F
100
AcDbEntity
  8
0
  6
Continuous
 62
     7
100
AcDbLine
 10
44.9499602645779
 20
156.4192027720977
 30
0.0
 11
74.9351544939239
 21
156.4192027720977
 31
0.0
  0
LINE
  5
203
330
1F
100
AcDbEntity
  8
0
  6
Continuous
 62
     7
100
AcDbLine
 10
44.9499602645779
 20
154.5056452155425
 30
0.0
 11
74.9351544939239
 21
154.5056452155425
 31
0.0
  0
LINE
  5
204
330
1F
100
AcDbEntity
  8
0
  6
Continuous
 62
     7
100
AcDbLine
 10
89.46476603523189
 20
153.3249062951859
 30
0.0
 11
89.46476603523189
 21
155.2249062951859
 31
0.0
  0
LINE
  5
205
330
1F
100
AcDbEntity
  8
0
  6
Continuous
 62
     7
100
AcDbLine
 10
86.03547204122975
 20
153.5851948634821
 30
0.0
 11
86.4854720412298
 21
154.3646177268882
 31
0.0
  0
LINE
  5
206
330
1F
100
AcDbEntity
  8
0
  6
Continuous
 62
     7
100
AcDbLine
 10
86.63574971620284
 20
154.6249062951854
 30
0.0
 11
87.15536495847283
 21
155.5249062951854
 31
0.0
  0
LINE
  5
207
330
1F
100
AcDbEntity
  8
0
  6
Continuous
 62
     7
100
AcDbLine
 10
84.38408366636378
 20
153.3249062951849
 30
0.0
 11
84.90963901630977
 21
154.2351948634822
 31
0.0
  0
LINE
  5
208
330
1F
100
AcDbEntity
  8
0
  6
Continuous
 62
     7
100
AcDbLine
 10
75.4351544939239
 20
154.324906295184
 30
0.0
 11
75.4351544939239
 21
156.2249062951838
 31
0.0
  0
LINE
  5
209
330
1F
100
AcDbEntity
  8
0
  6
Continuous
 62
     7
100
AcDbLine
 10
72.67588023185186
 20
152.7249062951802
 30
0.0
 11
74.9351544939239
 21
152.7249062951801
 31
0.0
  0
LINE
  5
20A
330
1F
100
AcDbEntity
  8
0
  6
Continuous
 62
     7
100
AcDbLine
 10
85.88519436625694
 20
153.3249062951856
 30
0.0
 11
84.38408366636378
 21
153.3249062951849
 31
0.0
  0
LINE
  5
20B
330
1F
100
AcDbEntity
  8
0
  6
Continuous
 62
     7
100
AcDbLine
 10
74.9351544939239
 20
156.4192027720977
 30
0.0
 11
74.9351544939239
 21
155.4432070523066
 31
0.0
  0
LINE
  5
20C
330
1F
100
AcDbEntity
  8
0
  6
Continuous
 62
     7
100
AcDbLine
 10
77.71568805722274
 20
156.8749062951839
 30
0.0
 11
78.23530329949386
 21
155.9749062951841
 31
0.0
  0
LINE
  5
20D
330
1F
100
AcDbEntity
  8
0
  6
Continuous
 62
     7
100
AcDbLine
 10
74.9351544939239
 20
154.4814530259826
 30
0.0
 11
74.9351544939239
 21
154.5056452155425
 31
0.0
  0
LINE
  5
20E
330
1F
100
AcDbEntity
  8
0
  6
Continuous
 62
     7
100
AcDbLine
 10
80.05395664744088
 20
155.5249062951845
 30
0.0
 11
80.57357188971179
 21
154.6249062951844
 31
0.0
  0
LINE
  5
20F
330
1F
100
AcDbEntity
  8
0
  6
Continuous
 62
     7
100
AcDbLine
 10
74.9351544939239
 20
154.4814530259826
 30
0.0
 11
74.9351544939239
 21
153.5526601412688
 31
0.0
  0
LINE
  5
210
330
1F
100
AcDbEntity
  8
0
  6
Continuous
 62
     7
100
AcDbLine
 10
89.9647660352328
 20
154.5056452155425
 30
0.0
 11
89.9647660352328
 21
154.4814530259826
 31
0.0
  0
LINE
  5
211
330
1F
100
AcDbEntity
  8
0
  6
Continuous
 62
     7
100
AcDbLine
 10
89.9647660352328
 20
152.7249062951801
 30
0.0
 11
89.9647660352328
 21
152.67490629518
 31
0.0
  0
LINE
  5
212
330
1F
100
AcDbEntity
  8
0
  6
Continuous
 62
     7
100
AcDbLine
 10
89.9647660352328
 20
153.5526601412688
 30
0.0
 11
119.9499602645779
 21
153.5526601412688
 31
0.0
  0
LINE
  5
213
330
1F
100
AcDbEntity
  8
0
  6
Continuous
 62
     7
100
AcDbLine
 10
115.5191313370338
 20
152.7675612876876
 30
0.0
 11
92.13078919212177
 21
152.7675612876876
 31
0.0
  0
LINE
  5
214
330
1F
100
AcDbEntity
  8
0
  6
Continuous
 62
     7
100
AcDbLine
 10
89.9647660352328
 20
154.4814530259826
 30
0.0
 11
119.9499602645779
 21
154.4814530259826
 31
0.0
  0
LINE
  5
215
330
1F
100
AcDbEntity
  8
0
  6
Continuous
 62
     7
100
AcDbLine
 10
115.3950516906009
 20
152.7108046800464
 30
0.0
 11
92.25486883855484
 21
152.7108046800465
 31
0.0
  0
LINE
  5
216
330
1F
100
AcDbEntity
  8
0
  6
Continuous
 62
     7
100
AcDbLine
 10
89.9647660352328
 20
152.67490629518
 30
0.0
 11
119.9499602645779
 21
152.6749062951801
 31
0.0
  0
LINE
  5
217
330
1F
100
AcDbEntity
  8
0
  6
Continuous
 62
     7
100
AcDbLine
 10
89.9647660352328
 20
154.4814530259826
 30
0.0
 11
89.9647660352328
 21
153.5526601412688
 31
0.0
  0
LINE
  5
218
330
1F
100
AcDbEntity
  8
0
  6
Continuous
 62
     7
100
AcDbLine
 10
89.9647660352328
 20
156.4192027720977
 30
0.0
 11
89.9647660352328
 21
155.4432070523066
 31
0.0
  0
LINE
  5
219
330
1F
100
AcDbEntity
  8
0
  6
Continuous
 62
     7
100
AcDbLine
 10
115.4258802318519
 20
152.7249062951801
 30
0.0
 11
115.5191313370338
 21
152.7675612876876
 31
0.0
  0
LINE
  5
21A
330
1F
100
AcDbEntity
  8
0
  6
Continuous
 62
     7
100
AcDbLine
 10
92.13078919212177
 20
152.7675612876876
 30
0.0
 11
92.22404029730393
 21
152.7249062951802
 31
0.0
  0
LINE
  5
21B
330
1F
100
AcDbEntity
  8
0
  6
Continuous
 62
     7
100
AcDbLine
 10
89.9647660352328
 20
156.4192027720977
 30
0.0
 11
119.9499602645779
 21
156.4192027720977
 31
0.0
  0
LINE
  5
21C
330
1F
100
AcDbEntity
  8
0
  6
Continuous
 62
     7
100
AcDbLine
 10
119.9499602645779
 20
155.4432070523066
 30
0.0
 11
89.9647660352328
 21
155.4432070523066
 31
0.0
  0
LINE
  5
21D
330
1F
100
AcDbEntity
  8
0
  6
Continuous
 62
     7
100
AcDbLine
 10
92.22404029730393
 20
152.7249062951802
 30
0.0
 11
92.25486883855484
 21
152.7108046800465
 31
0.0
  0
LINE
  5
21E
330
1F
100
AcDbEntity
  8
0
  6
Continuous
 62
     7
100
AcDbLine
 10
89.9647660352328
 20
152.7249062951801
 30
0.0
 11
92.22404029730393
 21
152.7249062951802
 31
0.0
  0
LINE
  5
21F
330
1F
100
AcDbEntity
  8
0
  6
Continuous
 62
     7
100
AcDbLine
 10
115.3950516906009
 20
152.7108046800464
 30
0.0
 11
115.4258802318519
 21
152.7249062951801
 31
0.0
  0
LINE
  5
220
330
1F
100
AcDbEntity
  8
0
  6
Continuous
 62
     7
100
AcDbLine
 10
119.9499602645779
 20
153.5526601412688
 30
0.0
 11
119.9499602645779
 21
152.7249062951801
 31
0.0
  0
LINE
  5
221
330
1F
100
AcDbEntity
  8
0
  6
Continuous
 62
     7
100
AcDbLine
 10
119.9499602645779
 20
156.4192027720977
 30
0.0
 11
119.9499602645779
 21
155.4432070523066
 31
0.0
  0
LINE
  5
222
330
1F
100
AcDbEntity
  8
0
  6
Continuous
 62
     7
100
AcDbLine
 10
119.9499602645779
 20
157.3730787210821
 30
0.0
 11
119.9499602645779
 21
156.4192027720977
 31
0.0
  0
LINE
  5
223
330
1F
100
AcDbEntity
  8
0
  6
Continuous
 62
     7
100
AcDbLine
 10
119.9499602645779
 20
155.4432070523066
 30
0.0
 11
119.9499602645779
 21
154.5056452155424
 31
0.0
  0
LINE
  5
224
330
1F
100
AcDbEntity
  8
0
  6
Continuous
 62
     7
100
AcDbLine
 10
119.9499602645779
 20
157.3730787210821
 30
0.0
 11
89.9647660352328
 21
157.3730787210821
 31
0.0
  0
LINE
  5
225
330
1F
100
AcDbEntity
  8
0
  6
Continuous
 62
     7
100
AcDbLine
 10
119.9499602645779
 20
154.5056452155424
 30
0.0
 11
89.9647660352328
 21
154.5056452155425
 31
0.0
  0
LINE
  5
226
330
1F
100
AcDbEntity
  8
0
  6
Continuous
 62
     7
100
AcDbLine
 10
85.35963901630981
 20
155.0146177268879
 30
0.0
 11
85.8851943662558
 21
155.9249062951851
 31
0.0
  0
LINE
  5
227
330
1F
100
AcDbEntity
  8
0
  6
Continuous
 62
     7
100
AcDbLine
 10
86.4854720412298
 20
154.3646177268882
 30
0.0
 11
85.35963901630981
 21
155.0146177268879
 31
0.0
  0
LINE
  5
228
330
1F
100
AcDbEntity
  8
0
  6
Continuous
 62
     7
100
AcDbLine
 10
84.90963901630977
 20
154.2351948634822
 30
0.0
 11
86.03547204122975
 21
153.5851948634821
 31
0.0
  0
LINE
  5
229
330
1F
100
AcDbEntity
  8
0
  6
Continuous
 62
     7
100
AcDbLine
 10
85.8851943662558
 20
155.9249062951851
 30
0.0
 11
86.63574971620284
 21
154.6249062951854
 31
0.0
  0
LINE
  5
22A
330
1F
100
AcDbEntity
  8
0
  6
Continuous
 62
     7
100
AcDbLine
 10
82.4499602645779
 20
156.1749062951847
 30
0.0
 11
83.92220345101174
 21
157.0249062951848
 31
0.0
  0
LINE
  5
22B
330
1F
100
AcDbEntity
  8
0
  6
Continuous
 62
     7
100
AcDbLine
 10
80.80451199738792
 20
153.3249062951848
 30
0.0
 11
79.53434140516976
 21
155.5249062951844
 31
0.0
  0
LINE
  5
22C
330
1F
100
AcDbEntity
  8
0
  6
Continuous
 62
     7
100
AcDbLine
 10
78.14870075911591
 20
152.4249062951843
 30
0.0
 11
75.4351544939239
 21
157.1249062951836
 31
0.0
  0
LINE
  5
22D
330
1F
100
AcDbEntity
  8
0
  6
Continuous
 62
     7
100
AcDbLine
 10
111.9858586494398
 20
74.67490629518412
 30
0.0
 11
112.4499602645779
 21
74.67490629518412
 31
0.0
  0
LINE
  5
22E
330
1F
100
AcDbEntity
  8
0
  6
Continuous
 62
     7
100
AcDbLine
 10
101.2227189286257
 20
78.17490629518342
 30
0.0
 11
100.2227189286257
 21
78.17490629518342
 31
0.0
  0
LINE
  5
22F
330
1F
100
AcDbEntity
  8
0
  6
Continuous
 62
     7
100
AcDbLine
 10
101.2227189286257
 20
78.17490629518342
 30
0.0
 11
111.9858586494398
 21
78.17490629518412
 31
0.0
  0
LINE
  5
230
330
1F
100
AcDbEntity
  8
0
  6
Continuous
 62
     7
100
AcDbLine
 10
100.2227189286257
 20
78.17490629518342
 30
0.0
 11
100.2227189286257
 21
74.67490629518342
 31
0.0
  0
LINE
  5
231
330
1F
100
AcDbEntity
  8
0
  6
Continuous
 62
     7
100
AcDbLine
 10
100.2227189286257
 20
74.67490629518342
 30
0.0
 11
101.2227189286257
 21
74.67490629518342
 31
0.0
  0
LINE
  5
232
330
1F
100
AcDbEntity
  8
0
  6
Continuous
 62
     7
100
AcDbLine
 10
112.4499602645779
 20
78.17490629518282
 30
0.0
 11
111.9858586494398
 21
78.17490629518412
 31
0.0
  0
LINE
  5
233
330
1F
100
AcDbEntity
  8
0
  6
Continuous
 62
     7
100
AcDbLine
 10
112.4499602645779
 20
135.774906295181
 30
0.0
 11
112.4499602645779
 21
140.5749062951809
 31
0.0
  0
LINE
  5
234
330
1F
100
AcDbEntity
  8
0
  6
Continuous
 62
     7
100
AcDbLine
 10
112.4499602645779
 20
140.5749062951809
 30
0.0
 11
112.4499602645779
 21
142.6749062951826
 31
0.0
  0
LINE
  5
235
330
1F
100
AcDbEntity
  8
0
  6
Continuous
 62
     7
100
AcDbLine
 10
112.4499602645783
 20
78.17490629518413
 30
0.0
 11
112.4499602645779
 21
118.6749062951809
 31
0.0
  0
LINE
  5
236
330
1F
100
AcDbEntity
  8
0
  6
Continuous
 62
     7
100
AcDbLine
 10
112.4499602645779
 20
118.6749062951809
 30
0.0
 11
112.4499602645779
 21
135.774906295181
 31
0.0
  0
LINE
  5
237
330
1F
100
AcDbEntity
  8
0
  6
Continuous
 62
     7
100
AcDbLine
 10
111.9858586494398
 20
74.67490629518412
 30
0.0
 11
101.2227189286257
 21
74.67490629518342
 31
0.0
  0
LINE
  5
238
330
1F
100
AcDbEntity
  8
0
  6
Continuous
 62
     7
100
AcDbLine
 10
100.2227189286257
 20
74.67490629518342
 30
0.0
 11
64.67720160052983
 21
74.67490629518342
 31
0.0
  0
LINE
  5
239
330
1F
100
AcDbEntity
  8
0
  6
Continuous
 62
     7
100
AcDbLine
 10
79.7652815128468
 20
152.4249062951849
 30
0.0
 11
75.4351544939239
 21
159.9249062951826
 31
0.0
  0
LINE
  5
23A
330
1F
100
AcDbEntity
  8
0
  6
Continuous
 62
     7
100
AcDbLine
 10
89.46476603523189
 20
153.3249062951859
 30
0.0
 11
85.6542542585799
 21
159.9249062951843
 31
0.0
  0
LINE
  5
23B
330
1F
100
AcDbEntity
  8
0
  6
Continuous
 62
     7
100
AcDbLine
 10
80.57357188971179
 20
154.6249062951844
 30
0.0
 11
82.4499602645779
 21
157.8749062951846
 31
0.0
  0
LINE
  5
23C
330
1F
100
AcDbEntity
  8
0
  6
Continuous
 62
     7
100
AcDbLine
 10
85.8851943662558
 20
157.724906295185
 30
0.0
 11
82.82523793955176
 21
152.4249062951851
 31
0.0
  0
LINE
  5
23D
330
1F
100
AcDbEntity
  8
0
  6
Continuous
 62
     7
100
AcDbLine
 10
82.30562269728176
 20
152.4249062951849
 30
0.0
 11
85.6253867451208
 21
158.174906295185
 31
0.0
  0
LINE
  5
23E
330
1F
100
AcDbEntity
  8
0
  6
Continuous
 62
     7
100
AcDbLine
 10
89.9647660352328
 20
152.67490629518
 30
0.0
 11
89.9647660352328
 21
151.8652759679005
 31
0.0
  0
LINE
  5
23F
330
1F
100
AcDbEntity
  8
0
  6
Continuous
 62
     7
100
AcDbLine
 10
89.9647660352328
 20
151.1395276928149
 30
0.0
 11
74.9351544939239
 21
151.1395276928096
 31
0.0
  0
LINE
  5
240
330
1F
100
AcDbEntity
  8
0
  6
Continuous
 62
     7
100
AcDbLine
 10
89.9647660352328
 20
151.1395276928149
 30
0.0
 11
119.9499602645779
 21
151.1395276928096
 31
0.0
  0
LINE
  5
241
330
1F
100
AcDbEntity
  8
0
  6
Continuous
 62
     7
100
AcDbLine
 10
89.9647660352328
 20
151.2114616728435
 30
0.0
 11
119.9499602645779
 21
151.2114616728435
 31
0.0
  0
LINE
  5
242
330
1F
100
AcDbEntity
  8
0
  6
Continuous
 62
     7
100
AcDbLine
 10
89.9647660352328
 20
151.8652759679005
 30
0.0
 11
119.9499602645779
 21
151.8652759679005
 31
0.0
  0
LINE
  5
243
330
1F
100
AcDbEntity
  8
0
  6
Continuous
 62
     7
100
AcDbLine
 10
119.9499602645779
 20
157.3904435388487
 30
0.0
 11
119.9499602645779
 21
157.3730787210821
 31
0.0
  0
LINE
  5
244
330
1F
100
AcDbEntity
  8
0
  6
Continuous
 62
     7
100
AcDbLine
 10
89.9647660352328
 20
159.199667208025
 30
0.0
 11
119.9499602645779
 21
159.199667208025
 31
0.0
  0
LINE
  5
245
330
1F
100
AcDbEntity
  8
0
  6
Continuous
 62
     7
100
AcDbLine
 10
75.4351544939239
 20
159.0249062951838
 30
0.0
 11
79.2456662705759
 21
152.4249062951845
 31
0.0
  0
LINE
  5
246
330
1F
100
AcDbEntity
  8
0
  6
Continuous
 62
     7
100
AcDbLine
 10
85.13463901630877
 20
159.9249062951843
 30
0.0
 11
89.46476603523189
 21
152.4249062951845
 31
0.0
  0
LINE
  5
247
330
1F
100
AcDbEntity
  8
1
  6
Continuous
 62
     2
100
AcDbLine
 10
123.4499602645779
 20
112.9249062951809
 30
0.0
 11
140.4
 21
112.9249062951809
 31
0.0
  0
LINE
  5
248
330
1F
100
AcDbEntity
  8
1
  6
Continuous
 62
     2
100
AcDbLine
 10
123.4499602645779
 20
80.9249062951809
 30
0.0
 11
140.4
 21
80.9249062951809
 31
0.0
  0
ARC
  5
249
330
1F
100
AcDbEntity
  8
Sichtbare_Kanten_TC_020513_DIN_
  6
Continuous
 62
     7
100
AcDbCircle
 10
80.94996026457778
 20
129.4881272488157
 30
0.0
 40
0.375
100
AcDbArc
 50
180.0
 51
0.0
  0
ARC
  5
24A
330
1F
100
AcDbEntity
  8
Sichtbare_Kanten_TC_020513_DIN_
  6
Continuous
 62
     7
100
AcDbCircle
 10
80.94996026457778
 20
134.6357238030807
 30
0.0
 40
0.3749999999993321
100
AcDbArc
 50
35.90957617704493
 51
180.0
  0
ARC
  5
24B
330
1F
100
AcDbEntity
  8
Sichtbare_Kanten_TC_020513_DIN_
  6
Continuous
 62
     7
100
AcDbCircle
 10
83.94996026457778
 20
134.6357238030807
 30
0.0
 40
0.375
100
AcDbArc
 50
0.0
 51
144.0904238230468
  0
ARC
  5
24C
330
1F
100
AcDbEntity
  8
Sichtbare_Kanten_TC_020513_DIN_
  6
Continuous
 62
     7
100
AcDbCircle
 10
83.94996026457778
 20
127.7140887872777
 30
0.0
 40
0.375
100
AcDbArc
 50
180.0
 51
0.0
  0
ARC
  5
24D
330
1F
100
AcDbEntity
  8
Sichtbare_Kanten_TC_020513_DIN_
  6
Continuous
 62
     7
100
AcDbCircle
 10
79.37496026457762
 20
133.7270699569267
 30
0.0
 40
0.375
100
AcDbArc
 50
0.0
 51
180.0
  0
ARC
  5
24E
330
1F
100
AcDbEntity
  8
Sichtbare_Kanten_TC_020513_DIN_
  6
Continuous
 62
     7
100
AcDbCircle
 10
82.44996026457778
 20
126.8487041718927
 30
0.0
 40
0.375000000000055
100
AcDbArc
 50
240.0183606310678
 51
60.01836063123219
  0
ARC
  5
24F
330
1F
100
AcDbEntity
  8
Sichtbare_Kanten_TC_020513_DIN_
  6
Continuous
 62
     7
100
AcDbCircle
 10
79.37496026457762
 20
128.6227426334307
 30
0.0
 40
0.375
100
AcDbArc
 50
180.0
 51
240.0183606310978
  0
ARC
  5
250
330
1F
100
AcDbEntity
  8
Sichtbare_Kanten_TC_020513_DIN_
  6
Continuous
 62
     7
100
AcDbCircle
 10
77.87496026457762
 20
129.4881272488157
 30
0.0
 40
0.375
100
AcDbArc
 50
180.0
 51
0.0
  0
ARC
  5
251
330
1F
100
AcDbEntity
  8
Sichtbare_Kanten_TC_020513_DIN_
  6
Continuous
 62
     7
100
AcDbCircle
 10
77.87496026457762
 20
132.8616853415417
 30
0.0
 40
0.375
100
AcDbArc
 50
0.0
 51
180.0
  0
ARC
  5
252
330
1F
100
AcDbEntity
  8
Sichtbare_Kanten_TC_020513_DIN_
  6
Continuous
 62
     7
100
AcDbCircle
 10
85.44996026457778
 20
133.7703391876957
 30
0.0
 40
0.3749999999994301
100
AcDbArc
 50
60.01836063123327
 51
180.0
  0
ARC
  5
253
330
1F
100
AcDbEntity
  8
Sichtbare_Kanten_TC_020513_DIN_
  6
Continuous
 62
     7
100
AcDbCircle
 10
87.69996026457778
 20
132.4722622646187
 30
0.0
 40
0.375000000000055
100
AcDbArc
 50
240.0183606310678
 51
60.01836063123327
  0
ARC
  5
254
330
1F
100
AcDbEntity
  8
Sichtbare_Kanten_TC_020513_DIN_
  6
Continuous
 62
     7
100
AcDbCircle
 10
87.69996026457778
 20
131.1749062951787
 30
0.0
 40
0.375
100
AcDbArc
 50
270.0
 51
90.0
  0
ARC
  5
255
330
1F
100
AcDbEntity
  8
Sichtbare_Kanten_TC_020513_DIN_
  6
Continuous
 62
     7
100
AcDbCircle
 10
87.69996026457778
 20
129.8775503257387
 30
0.0
 40
0.3749999999994301
100
AcDbArc
 50
299.9816393687667
 51
119.9816393689322
  0
ARC
  5
256
330
1F
100
AcDbEntity
  8
Sichtbare_Kanten_TC_020513_DIN_
  6
Continuous
 62
     7
100
AcDbCircle
 10
85.44996026457778
 20
128.5794734026617
 30
0.0
 40
0.375
100
AcDbArc
 50
180.0
 51
299.9816393687667
  0
ARC
  5
257
330
1F
100
AcDbEntity
  8
1
  6
DASHED
 62
     2
100
AcDbCircle
 10
216.3499602710927
 20
138.1749062951809
 30
0.0
 40
40.58359793129512
100
AcDbArc
 50
0.0
 51
47.66457937528254
  0
ARC
  5
258
330
1F
100
AcDbEntity
  8
0
  6
Continuous
 62
     7
100
AcDbCircle
 10
244.3499602710918
 20
156.1749062951813
 30
0.0
 40
7.2999999999994
100
AcDbArc
 50
22.9800728782137
 51
30.91050922217128
  0
ARC
  5
259
330
1F
100
AcDbEntity
  8
0
  6
Continuous
 62
     7
100
AcDbCircle
 10
244.3499602710918
 20
156.1749062951813
 30
0.0
 40
6.900000000000725
100
AcDbArc
 50
24.39616528277503
 51
25.99999999999397
  0
ARC
  5
25A
330
1F
100
AcDbEntity
  8
0
  6
Continuous
 62
     7
100
AcDbCircle
 10
244.3499602710918
 20
156.1749062951813
 30
0.0
 40
7.300000000000356
100
AcDbArc
 50
7.47750829954934
 51
22.9800728782137
  0
ARC
  5
25B
330
1F
100
AcDbEntity
  8
0
  6
Continuous
 62
     7
100
AcDbCircle
 10
244.3499602710918
 20
156.1749062951813
 30
0.0
 40
6.900000000000132
100
AcDbArc
 50
7.91368707072332
 51
9.99999999999164
  0
ARC
  5
25C
330
1F
100
AcDbEntity
  8
0
  6
Continuous
 62
     7
100
AcDbCircle
 10
244.3499602710918
 20
156.1749062951813
 30
0.0
 40
7.300000000000351
100
AcDbArc
 50
0.39243991446954
 51
7.47750829954934
  0
ARC
  5
25D
330
1F
100
AcDbEntity
  8
0
  6
Continuous
 62
     7
100
AcDbCircle
 10
244.3499602710918
 20
156.1749062951813
 30
0.0
 40
7.30000000000153
100
AcDbArc
 50
345.3197412543728
 51
0.39243991446954
  0
ARC
  5
25E
330
1F
100
AcDbEntity
  8
0
  6
Continuous
 62
     7
100
AcDbCircle
 10
244.3499602710918
 20
156.1749062951813
 30
0.0
 40
7.300000000000652
100
AcDbArc
 50
337.8698151872403
 51
345.3197412543728
  0
ARC
  5
25F
330
1F
100
AcDbEntity
  8
0
  6
Continuous
 62
     7
100
AcDbCircle
 10
244.3499602710918
 20
156.1749062951813
 30
0.0
 40
6.900000000000321
100
AcDbArc
 50
336.5123915070387
 51
337.9999999999936
  0
ARC
  5
260
330
1F
100
AcDbEntity
  8
0
  6
Continuous
 62
     7
100
AcDbCircle
 10
244.3499602710918
 20
156.1749062951813
 30
0.0
 40
7.300000000000706
100
AcDbArc
 50
329.0894907778875
 51
337.8698151872403
  0
ARC
  5
261
330
1F
100
AcDbEntity
  8
0
  6
Continuous
 62
     7
100
AcDbCircle
 10
216.3499602710927
 20
138.1749062951809
 30
0.0
 40
7.500000000000086
100
AcDbArc
 50
85.44224388559223
 51
143.1301023541759
  0
ARC
  5
262
330
1F
100
AcDbEntity
  8
0
  6
Continuous
 62
     7
100
AcDbCircle
 10
244.3499602710963
 20
156.174906295179
 30
0.0
 40
4.5
100
AcDbArc
 50
270.0
 51
90.0
  0
ARC
  5
263
330
1F
100
AcDbEntity
  8
0
  6
Continuous
 62
     7
100
AcDbCircle
 10
214.3499602710927
 20
151.9749062951821
 30
0.0
 40
2.400000000000406
100
AcDbArc
 50
19.99999999999622
 51
121.0482219935079
  0
ARC
  5
264
330
1F
100
AcDbEntity
  8
0
  6
Continuous
 62
     7
100
AcDbCircle
 10
244.3499602710918
 20
156.1749062951813
 30
0.0
 40
7.000000000001594
100
AcDbArc
 50
306.0000000000016
 51
313.9999999999924
  0
ARC
  5
265
330
1F
100
AcDbEntity
  8
0
  6
Continuous
 62
     7
100
AcDbCircle
 10
244.3499602710918
 20
156.1749062951813
 30
0.0
 40
6.900000000000801
100
AcDbArc
 50
313.9999999999938
 51
321.9999999999953
  0
ARC
  5
266
330
1F
100
AcDbEntity
  8
0
  6
Continuous
 62
     7
100
AcDbCircle
 10
244.3499602710918
 20
156.1749062951813
 30
0.0
 40
6.90000000000119
100
AcDbArc
 50
297.9999999999992
 51
306.0000000000025
  0
ARC
  5
267
330
1F
100
AcDbEntity
  8
0
  6
Continuous
 62
     7
100
AcDbCircle
 10
244.3499602710918
 20
156.1749062951813
 30
0.0
 40
7.000000000001291
100
AcDbArc
 50
290.0000000000016
 51
298.0000000000036
  0
ARC
  5
268
330
1F
100
AcDbEntity
  8
0
  6
Continuous
 62
     7
100
AcDbCircle
 10
244.3499602710918
 20
156.1749062951813
 30
0.0
 40
6.900000000001048
100
AcDbArc
 50
281.9999999999953
 51
289.9999999999945
  0
ARC
  5
269
330
1F
100
AcDbEntity
  8
0
  6
Continuous
 62
     7
100
AcDbCircle
 10
244.3499602710918
 20
156.1749062951813
 30
0.0
 40
7.00000000000113
100
AcDbArc
 50
273.9999999999979
 51
282.0000000000063
  0
ARC
  5
26A
330
1F
100
AcDbEntity
  8
0
  6
Continuous
 62
     7
100
AcDbCircle
 10
244.3499602710918
 20
156.1749062951813
 30
0.0
 40
6.900000000001
100
AcDbArc
 50
270.0
 51
274.0000000000005
  0
ARC
  5
26B
330
1F
100
AcDbEntity
  8
0
  6
Continuous
 62
     7
100
AcDbCircle
 10
242.8499602710872
 20
152.674906295179
 30
0.0
 40
1.0
100
AcDbArc
 50
180.0
 51
270.0
  0
ARC
  5
26C
330
1F
100
AcDbEntity
  8
0
  6
Continuous
 62
     7
100
AcDbCircle
 10
244.3499602710918
 20
156.1749062951813
 30
0.0
 40
6.900000000000351
100
AcDbArc
 50
330.4081542059218
 51
336.5123915070387
  0
ARC
  5
26D
330
1F
100
AcDbEntity
  8
0
  6
Continuous
 62
     7
100
AcDbCircle
 10
244.3499602710918
 20
156.1749062951813
 30
0.0
 40
7.000000000000881
100
AcDbArc
 50
337.9999999999931
 51
345.9999999999923
  0
ARC
  5
26E
330
1F
100
AcDbEntity
  8
0
  6
Continuous
 62
     7
100
AcDbCircle
 10
244.34996027109
 20
156.1749062951776
 30
0.0
 40
6.900000000000488
100
AcDbArc
 50
330.0000000000272
 51
330.4081542059558
  0
ARC
  5
26F
330
1F
100
AcDbEntity
  8
0
  6
Continuous
 62
     7
100
AcDbCircle
 10
211.0499602710925
 20
156.8749062951818
 30
0.0
 40
3.499999999998181
100
AcDbArc
 50
180.0000000000065
 51
301.0482219934941
  0
ARC
  5
270
330
1F
100
AcDbEntity
  8
0
  6
Continuous
 62
     7
100
AcDbCircle
 10
231.6424200323709
 20
152.9749060564647
 30
0.0
 40
7.70754023871532
100
AcDbArc
 50
223.8323393907981
 51
87.46545028842263
  0
ARC
  5
271
330
1F
100
AcDbEntity
  8
0
  6
Continuous
 62
     7
100
AcDbCircle
 10
216.3499602710981
 20
96.9249062951809
 30
0.0
 40
21.74999999999962
100
AcDbArc
 50
300.4503140213602
 51
0.00000000000659
  0
ARC
  5
272
330
1F
100
AcDbEntity
  8
0
  6
Continuous
 62
     7
100
AcDbCircle
 10
216.3499602710981
 20
96.9249062951809
 30
0.0
 40
21.75
100
AcDbArc
 50
0.00000000000659
 51
180.0000000000066
  0
ARC
  5
273
330
1F
100
AcDbEntity
  8
0
  6
Continuous
 62
     7
100
AcDbCircle
 10
216.3499602710981
 20
96.9249062951809
 30
0.0
 40
21.7500000000002
100
AcDbArc
 50
180.0000000000066
 51
239.5496859786477
  0
ARC
  5
274
330
1F
100
AcDbEntity
  8
0
  6
Continuous
 62
     7
100
AcDbCircle
 10
217.065136114683
 20
147.1464459352174
 30
0.0
 40
1.499999999999986
100
AcDbArc
 50
265.4422438856344
 51
19.99999999999843
  0
ARC
  5
275
330
1F
100
AcDbEntity
  8
0
  6
Continuous
 62
     7
100
AcDbCircle
 10
216.3499602710927
 20
138.1749062951809
 30
0.0
 40
7.499999999999784
100
AcDbArc
 50
143.1301023541759
 51
305.8843290873127
  0
ARC
  5
276
330
1F
100
AcDbEntity
  8
0
  6
Continuous
 62
     7
100
AcDbCircle
 10
216.3499602711191
 20
138.1749062950928
 30
0.0
 40
5.100000000000252
100
AcDbArc
 50
196.5192987089447
 51
196.6728220295209
  0
ARC
  5
277
330
1F
100
AcDbEntity
  8
0
  6
Continuous
 62
     7
100
AcDbCircle
 10
216.3499602710927
 20
138.1749062951809
 30
0.0
 40
5.100000000000343
100
AcDbArc
 50
162.8233243523324
 51
196.519298709978
  0
ARC
  5
278
330
1F
100
AcDbEntity
  8
0
  6
Continuous
 62
     7
100
AcDbCircle
 10
216.3499602710927
 20
138.1749062951809
 30
0.0
 40
5.10000000000027
100
AcDbArc
 50
196.6728220305542
 51
162.8233243523324
  0
ARC
  5
279
330
1F
100
AcDbEntity
  8
0
  6
Continuous
 62
     7
100
AcDbCircle
 10
244.3499602710918
 20
156.1749062951813
 30
0.0
 40
7.000000000000861
100
AcDbArc
 50
321.999999999993
 51
329.9999999999931
  0
ARC
  5
27A
330
1F
100
AcDbEntity
  8
0
  6
Continuous
 62
     7
100
AcDbCircle
 10
244.3499602710918
 20
156.1749062951813
 30
0.0
 40
6.9000000000007
100
AcDbArc
 50
345.999999999992
 51
353.9999999999907
  0
ARC
  5
27B
330
1F
100
AcDbEntity
  8
0
  6
Continuous
 62
     7
100
AcDbCircle
 10
211.5499602710952
 20
159.1749062951813
 30
0.0
 40
1.499999999997812
100
AcDbArc
 50
89.99999999992727
 51
180.0000000000912
  0
ARC
  5
27C
330
1F
100
AcDbEntity
  8
0
  6
Continuous
 62
     7
100
AcDbCircle
 10
211.5499602710952
 20
159.1749062951813
 30
0.0
 40
3.999999999998892
100
AcDbArc
 50
90.00000000001263
 51
180.0000000000216
  0
ARC
  5
27D
330
1F
100
AcDbEntity
  8
0
  6
Continuous
 62
     7
100
AcDbCircle
 10
211.0604381532049
 20
157.6929241773014
 30
0.0
 40
1.010477882107807
100
AcDbArc
 50
180.0
 51
303.8180741015375
  0
ARC
  5
27E
330
1F
100
AcDbEntity
  8
0
  6
Continuous
 62
     7
100
AcDbCircle
 10
242.8499602710872
 20
159.6749062951791
 30
0.0
 40
1.0
100
AcDbArc
 50
90.0
 51
180.0
  0
ARC
  5
27F
330
1F
100
AcDbEntity
  8
0
  6
Continuous
 62
     7
100
AcDbCircle
 10
244.3499602710918
 20
156.1749062951813
 30
0.0
 40
6.899999999999605
100
AcDbArc
 50
65.99999999998582
 51
73.99999999999403
  0
ARC
  5
280
330
1F
100
AcDbEntity
  8
0
  6
Continuous
 62
     7
100
AcDbCircle
 10
244.3499602710918
 20
156.1749062951813
 30
0.0
 40
6.999999999999458
100
AcDbArc
 50
57.99999999999179
 51
65.99999999999666
  0
ARC
  5
281
330
1F
100
AcDbEntity
  8
0
  6
Continuous
 62
     7
100
AcDbCircle
 10
244.3499602710918
 20
156.1749062951813
 30
0.0
 40
6.899999999999753
100
AcDbArc
 50
49.99999999998645
 51
57.99999999998742
  0
ARC
  5
282
330
1F
100
AcDbEntity
  8
0
  6
Continuous
 62
     7
100
AcDbCircle
 10
244.3499602711336
 20
156.1749062951397
 30
0.0
 40
7.000000000005315
100
AcDbArc
 50
42.00000000046736
 51
50.00000000047513
  0
ARC
  5
283
330
1F
100
AcDbEntity
  8
0
  6
Continuous
 62
     7
100
AcDbCircle
 10
244.3499602710918
 20
156.1749062951813
 30
0.0
 40
6.999999999999367
100
AcDbArc
 50
73.99999999998728
 51
81.99999999999615
  0
ARC
  5
284
330
1F
100
AcDbEntity
  8
0
  6
Continuous
 62
     7
100
AcDbCircle
 10
244.3499602710918
 20
156.1749062951813
 30
0.0
 40
6.89999999999902
100
AcDbArc
 50
81.99999999999675
 51
90.0
  0
ARC
  5
285
330
1F
100
AcDbEntity
  8
0
  6
Continuous
 62
     7
100
AcDbCircle
 10
244.3499602710918
 20
156.1749062951813
 30
0.0
 40
6.899999999999835
100
AcDbArc
 50
33.99999999999022
 51
41.99999999998536
  0
ARC
  5
286
330
1F
100
AcDbEntity
  8
0
  6
Continuous
 62
     7
100
AcDbCircle
 10
244.3499602710918
 20
156.1749062951813
 30
0.0
 40
7.000000000000047
100
AcDbArc
 50
25.99999999999044
 51
33.99999999999323
  0
ARC
  5
287
330
1F
100
AcDbEntity
  8
0
  6
Continuous
 62
     7
100
AcDbCircle
 10
244.3499602710918
 20
156.1749062951813
 30
0.0
 40
6.89999999999988
100
AcDbArc
 50
17.99999999999027
 51
24.39616528277503
  0
ARC
  5
288
330
1F
100
AcDbEntity
  8
0
  6
Continuous
 62
     7
100
AcDbCircle
 10
244.3499602710918
 20
156.1749062951813
 30
0.0
 40
7.000000000000417
100
AcDbArc
 50
353.9999999999911
 51
1.99999999999065
  0
ARC
  5
289
330
1F
100
AcDbEntity
  8
0
  6
Continuous
 62
     7
100
AcDbCircle
 10
244.3499602710918
 20
156.1749062951813
 30
0.0
 40
6.900000000000719
100
AcDbArc
 50
1.99999999999012
 51
7.91368707072332
  0
ARC
  5
28A
330
1F
100
AcDbEntity
  8
0
  6
Continuous
 62
     7
100
AcDbCircle
 10
244.3499602710918
 20
156.1749062951813
 30
0.0
 40
7.000000000000544
100
AcDbArc
 50
9.99999999998996
 51
17.99999999998815
  0
ARC
  5
28B
330
1F
100
AcDbEntity
  8
0
  6
Continuous
 62
     7
100
AcDbCircle
 10
214.3499602710972
 20
152.7824462951809
 30
0.0
 40
4.899999999999261
100
AcDbArc
 50
43.83233939079766
 51
123.8180741014803
  0
CIRCLE
  5
28C
330
1F
100
AcDbEntity
  8
0
  6
Continuous
 62
     7
100
AcDbCircle
 10
216.3499602710927
 20
138.1749062951809
 30
0.0
 40
2.399999999999608
  0
CIRCLE
  5
28D
330
1F
100
AcDbEntity
  8
0
  6
Continuous
 62
     7
100
AcDbCircle
 10
224.8499602710963
 20
142.1749062951795
 30
0.0
 40
3.0
  0
CIRCLE
  5
28E
330
1F
100
AcDbEntity
  8
0
  6
Continuous
 62
     7
100
AcDbCircle
 10
216.3499602710981
 20
96.9249062951809
 30
0.0
 40
15.2399999999989
  0
CIRCLE
  5
28F
330
1F
100
AcDbEntity
  8
0
  6
Continuous
 62
     7
100
AcDbCircle
 10
216.3499602710981
 20
96.9249062951809
 30
0.0
 40
17.73999999999999
  0
SPLINE
  5
290
330
1F
100
AcDbEntity
  8
0
  6
Continuous
 62
     7
100
AcDbSpline
210
0.0
220
0.0
230
1.0
 70
     8
 71
     3
 72
    11
 73
     7
 74
     5
 42
0.000000001
 43
0.0000000001
 44
0.00000001
 40
0.0
 40
0.0
 40
0.0
 40
0.0
 40
0.861392700491466
 40
1.819879843213006
 40
2.900901536898415
 40
4.060775726361136
 40
4.060775726361136
 40
4.060775726361136
 40
4.060775726361136
 10
114.4499602645779
 20
144.1106685777517
 30
0.0
 10
114.4002561304515
 20
144.4000517162781
 30
0.0
 10
114.2952452990144
 20
145.0114366710378
 30
0.0
 10
113.5639427673883
 20
145.7186038976224
 30
0.0
 10
112.5901098569185
 20
146.1905016753961
 30
0.0
 10
111.8388222160919
 20
146.2501714583817
 30
0.0
 10
111.4499602645779
 20
146.2810561709333
 30
0.0
 11
114.4499602645779
 21
144.1106685777517
 31
0.0
 11
114.2215904349588
 21
144.941237426125
 31
0.0
 11
113.5712806081378
 21
145.6453643626936
 31
0.0
 11
112.598007071032
 21
146.1158391559791
 31
0.0
 11
111.4499602645779
 21
146.2810561709333
 31
0.0
  0
SPLINE
  5
291
330
1F
100
AcDbEntity
  8
0
  6
Continuous
 62
     7
100
AcDbSpline
210
0.0
220
0.0
230
1.0
 70
     8
 71
     3
 72
    11
 73
     7
 74
     5
 42
0.000000001
 43
0.0000000001
 44
0.00000001
 40
0.0
 40
0.0
 40
0.0
 40
0.0
 40
1.159874189462806
 40
2.240895883147838
 40
3.19938302586934
 40
4.060775726360957
 40
4.060775726360957
 40
4.060775726360957
 40
4.060775726360957
 10
53.4499602645779
 20
146.2810561709333
 30
0.0
 10
53.06109831306389
 20
146.2501714583817
 30
0.0
 10
52.30981067223739
 20
146.190501675396
 30
0.0
 10
51.33597776176769
 20
145.7186038976225
 30
0.0
 10
50.60467523014182
 20
145.0114366710377
 30
0.0
 10
50.4996643987044
 20
144.4000517162782
 30
0.0
 10
50.4499602645779
 20
144.1106685777517
 30
0.0
 11
53.4499602645779
 21
146.2810561709333
 31
0.0
 11
52.30191345812369
 21
146.1158391559791
 31
0.0
 11
51.32863992101835
 21
145.6453643626936
 31
0.0
 11
50.67833009419733
 21
144.941237426125
 31
0.0
 11
50.4499602645779
 21
144.1106685777517
 31
0.0
  0
LWPOLYLINE
  5
292
330
1F
100
AcDbEntity
  8
0
  6
Continuous
 62
     7
 60
     1
100
AcDbPolyline
 90
        2
 70
     0
 43
0.0
 10
-1756.104848900709
 20
3121.471926673017
 10
-1720.021144589957
 20
3098.031098144886
  0
LWPOLYLINE
  5
293
330
1F
100
AcDbEntity
  8
0
  6
Continuous
 62
     7
 60
     1
100
AcDbPolyline
 90
        2
 70
     0
 43
0.0
 10
-1639.710629918418
 20
3121.471926673017
 10
-1603.626925607677
 20
3103.031098144886
  0
LWPOLYLINE
  5
294
330
1F
100
AcDbEntity
  8
0
  6
Continuous
 62
     7
 60
     1
100
AcDbPolyline
 90
        2
 70
     0
 43
0.0
 10
-1354.710629918416
 20
3121.471926673017
 10
-1318.626925607668
 20
3130.931098144876
  0
LWPOLYLINE
  5
295
330
1F
100
AcDbEntity
  8
0
  6
Continuous
 62
     7
 60
     1
100
AcDbPolyline
 90
        2
 70
     0
 43
0.0
 10
-1749.877429545869
 20
3117.2974811085
 10
-1713.793725235118
 20
3093.85665258037
  0
LWPOLYLINE
  5
296
330
1F
100
AcDbEntity
  8
0
  6
Continuous
 62
     7
 60
     1
100
AcDbPolyline
 90
        2
 70
     0
 43
0.0
 10
-1633.483210563578
 20
3117.2974811085
 10
-1597.399506252838
 20
3098.85665258037
  0
LWPOLYLINE
  5
297
330
1F
100
AcDbEntity
  8
0
  6
Continuous
 62
     7
 60
     1
100
AcDbPolyline
 90
        2
 70
     0
 43
0.0
 10
-1348.483210563577
 20
3117.2974811085
 10
-1312.399506252829
 20
3126.75665258036
  0
LWPOLYLINE
  5
298
330
1F
100
AcDbEntity
  8
0
  6
Continuous
 62
     7
 60
     1
100
AcDbPolyline
 90
        2
 70
     0
 43
0.0
 10
-1749.877429545869
 20
3117.2974811085
 10
-1713.793725235118
 20
3093.85665258037
  0
LWPOLYLINE
  5
299
330
1F
100
AcDbEntity
  8
0
  6
Continuous
 62
     7
 60
     1
100
AcDbPolyline
 90
        2
 70
     0
 43
0.0
 10
-1633.483210563578
 20
3117.2974811085
 10
-1597.399506252838
 20
3098.85665258037
  0
LWPOLYLINE
  5
29A
330
1F
100
AcDbEntity
  8
0
  6
Continuous
 62
     7
 60
     1
100
AcDbPolyline
 90
        2
 70
     0
 43
0.0
 10
-1348.483210563577
 20
3117.2974811085
 10
-1312.399506252829
 20
3126.75665258036
  0
LWPOLYLINE
  5
29B
330
1F
100
AcDbEntity
  8
0
  6
Continuous
 62
     7
 60
     1
100
AcDbPolyline
 90
        2
 70
     0
 43
0.0
 10
-1768.151847272609
 20
3115.964929507814
 10
-1732.068142961857
 20
3092.524100979683
  0
LWPOLYLINE
  5
29C
330
1F
100
AcDbEntity
  8
0
  6
Continuous
 62
     7
 60
     1
100
AcDbPolyline
 90
        2
 70
     0
 43
0.0
 10
-1651.757628290317
 20
3115.964929507814
 10
-1615.673923979577
 20
3097.524100979683
  0
LWPOLYLINE
  5
29D
330
1F
100
AcDbEntity
  8
0
  6
Continuous
 62
     7
 60
     1
100
AcDbPolyline
 90
        2
 70
     0
 43
0.0
 10
-1366.757628290316
 20
3115.964929507814
 10
-1330.673923979568
 20
3125.424100979673
  0
LWPOLYLINE
  5
29E
330
1F
100
AcDbEntity
  8
0
  6
Continuous
 62
     7
 60
     1
100
AcDbPolyline
 90
        2
 70
     0
 43
0.0
 10
-1761.924427917769
 20
3111.790483943297
 10
-1725.840723607018
 20
3088.349655415168
  0
LWPOLYLINE
  5
29F
330
1F
100
AcDbEntity
  8
0
  6
Continuous
 62
     7
 60
     1
100
AcDbPolyline
 90
        2
 70
     0
 43
0.0
 10
-1645.530208935478
 20
3111.790483943297
 10
-1609.446504624738
 20
3093.349655415168
  0
LWPOLYLINE
  5
2A0
330
1F
100
AcDbEntity
  8
0
  6
Continuous
 62
     7
 60
     1
100
AcDbPolyline
 90
        2
 70
     0
 43
0.0
 10
-1360.530208935477
 20
3111.790483943297
 10
-1324.446504624729
 20
3121.249655415158
  0
LWPOLYLINE
  5
2A1
330
1F
100
AcDbEntity
  8
0
  6
Continuous
 62
     7
 60
     1
100
AcDbPolyline
 90
        2
 70
     0
 43
0.0
 10
-1761.924427917769
 20
3111.790483943297
 10
-1725.840723607018
 20
3088.349655415168
  0
LWPOLYLINE
  5
2A2
330
1F
100
AcDbEntity
  8
0
  6
Continuous
 62
     7
 60
     1
100
AcDbPolyline
 90
        2
 70
     0
 43
0.0
 10
-1645.530208935478
 20
3111.790483943297
 10
-1609.446504624738
 20
3093.349655415168
  0
LWPOLYLINE
  5
2A3
330
1F
100
AcDbEntity
  8
0
  6
Continuous
 62
     7
 60
     1
100
AcDbPolyline
 90
        2
 70
     0
 43
0.0
 10
-1360.530208935477
 20
3111.790483943297
 10
-1324.446504624729
 20
3121.249655415158
  0
MTEXT
  5
2A5
330
1F
100
AcDbEntity
  8
1
 62
     4
100
AcDbMText
 10
219.749959888155
 20
69.17490629526232
 30
0.0
 40
3.5
 41
0.0
 71
     2
 72
     1
  1
 
  7
CONVERTER_13
 73
     1
 44
1.32052821128451
  0
MTEXT
  5
2A6
330
1F
100
AcDbEntity
  8
1
 62
     4
100
AcDbMText
 10
82.44996026636392
 20
69.17490629526232
 30
0.0
 40
3.5
 41
0.0
 71
     2
 72
     1
  1
 
  7
CONVERTER_13
 73
     1
 44
1.32052821128451
  0
DIMENSION
  5
2B1
330
1F
100
AcDbEntity
  8
1
100
AcDbDimension
  2
*D3
 10
187.8499602710988
 20
175.25813205223
 30
0.0
 11
222.3917592367434
 21
178.75813205223
 31
0.0
 70
    32
  1
70
 71
     5
 42
-1.0
 53
0.00013888888889
  3
ME10_DIM_10
100
AcDbAlignedDimension
 13
256.9335582023878
 23
138.1749062951809
 33
0.0
 14
187.8499602710988
 24
78.17490629517762
 34
0.0
100
AcDbRotatedDimension
  0
DIMENSION
  5
2BC
330
1F
100
AcDbEntity
  8
1
100
AcDbDimension
  2
*D4
 10
119.9499602645779
 20
175.25813205223
 30
0.0
 11
82.4499602645779
 21
178.75813205223
 31
0.0
 70
    32
  1
<>
 71
     5
 42
-1.0
 53
0.00013888888889
  3
ME10_DIM_11
100
AcDbAlignedDimension
 13
44.9499602645779
 23
163.1749062951804
 33
0.0
 14
119.9499602645779
 24
163.1749062951802
 34
0.0
100
AcDbRotatedDimension
  0
DIMENSION
  5
2C7
330
1F
100
AcDbEntity
  8
1
100
AcDbDimension
  2
*D5
 10
41.4499602645779
 20
51.141381205233
 30
0.0
 11
82.4499602645779
 21
54.641381205233
 31
0.0
 70
    32
  1
<>
 71
     5
 42
-1.0
 53
0.00013888888889
  3
ME10_DIM_12
100
AcDbAlignedDimension
 13
123.4499602645779
 23
74.17490629518392
 33
0.0
 14
41.4499602645779
 24
74.17490629518392
 34
0.0
100
AcDbRotatedDimension
  0
DIMENSION
  5
2D2
330
1F
100
AcDbEntity
  8
1
100
AcDbDimension
  2
*D6
 10
117.4499602645779
 20
59.62410409006701
 30
0.0
 11
82.4499602645779
 21
63.12410409006701
 31
0.0
 70
    32
  1
<>
 71
     5
 42
-1.0
 53
0.00013888888889
  3
ME10_DIM_13
100
AcDbAlignedDimension
 13
47.4499602645779
 23
67.00219377696293
 33
0.0
 14
117.4499602645779
 24
66.80637621296722
 34
0.0
100
AcDbRotatedDimension
  0
DIMENSION
  5
2DD
330
1F
100
AcDbEntity
  8
1
100
AcDbDimension
  2
*D7
 10
238.8499602711
 20
59.62410409006701
 30
0.0
 11
216.3499602711
 21
63.12410409006701
 31
0.0
 70
    32
  1
<>
 71
     5
 42
-1.0
 53
0.00013888888889
  3
ME10_DIM_14
100
AcDbAlignedDimension
 13
193.8499602710997
 23
70.87321477019282
 33
0.0
 14
238.8499602711
 24
71.22680311220581
 34
0.0
100
AcDbRotatedDimension
  0
DIMENSION
  5
2E8
330
1F
100
AcDbEntity
  8
1
100
AcDbDimension
  2
*D8
 10
244.8499602711
 20
51.141381205233
 30
0.0
 11
216.3499602711
 21
54.641381205233
 31
0.0
 70
    32
  1
<>
 71
     5
 42
-1.0
 53
0.00013888888889
  3
ME10_DIM_15
100
AcDbAlignedDimension
 13
187.8499602710997
 23
74.17490629517762
 33
0.0
 14
244.8499602711
 24
74.17490629518412
 34
0.0
100
AcDbRotatedDimension
  0
DIMENSION
  5
2F5
330
1F
100
AcDbEntity
  8
1
100
AcDbDimension
  2
*D9
 10
254.8499602710991
 20
74.1749062951841
 30
0.0
 11
251.3499602710991
 21
85.50637460266643
 31
0.0
 70
    32
  1
<>
 71
     5
 42
-1.0
 53
90.0
  3
ME10_DIM_16
100
AcDbAlignedDimension
 13
244.8499602710991
 23
78.17490629518413
 33
0.0
 14
244.8499602711
 24
74.17490629518412
 34
0.0
 50
90.0
100
AcDbRotatedDimension
  0
DIMENSION
  5
300
330
1F
100
AcDbEntity
  8
1
100
AcDbDimension
  2
*D10
 10
176.8584667057001
 20
148.1749062951784
 30
0.0
 11
173.3584667057001
 21
111.1749062951781
 31
0.0
 70
    32
  1
<>
 71
     5
 42
-1.0
 53
90.0
  3
ME10_DIM_17
100
AcDbAlignedDimension
 13
187.8499602710997
 23
74.17490629517762
 33
0.0
 14
194.8499602710911
 24
148.1749062951784
 34
0.0
 50
90.0
100
AcDbRotatedDimension
  0
DIMENSION
  5
30B
330
1F
100
AcDbEntity
  8
1
100
AcDbDimension
  2
*D11
 10
140.4
 20
80.9249062951809
 30
0.0
 11
136.9
 21
96.9249062951809
 31
0.0
 70
    32
  1
M32
 71
     5
 42
-1.0
 53
90.0
  3
ME10_DIM_18
100
AcDbAlignedDimension
 13
140.4
 23
112.9249062951809
 33
0.0
 14
140.4
 24
80.9249062951809
 34
0.0
 50
90.0
100
AcDbRotatedDimension
  0
ENDSEC
  0
SECTION
  2
OBJECTS
  0
DICTIONARY
  5
C
330
0
100
AcDbDictionary
281
     1
  3
ACAD_GROUP
350
D
  3
ACAD_LAYOUT
350
1A
  3
ACAD_MATERIAL
350
3B
  3
ACAD_MLEADERSTYLE
350
30E
  3
ACAD_MLINESTYLE
350
17
  3
ACAD_PLOTSETTINGS
350
19
  3
ACAD_PLOTSTYLENAME
350
E
  3
ACAD_VISUALSTYLE
350
2A
  3
AcDbVariableDictionary
350
30C
  0
DICTIONARY
  5
D
102
{ACAD_REACTORS
330
C
102
}
330
C
100
AcDbDictionary
281
     1
  0
DICTIONARY
  5
1A
102
{ACAD_REACTORS
330
C
102
}
330
C
100
AcDbDictionary
281
     1
  3
Layout1
350
1E
  3
Layout2
350
26
  3
Model
350
22
  0
DICTIONARY
  5
3B
102
{ACAD_REACTORS
330
C
102
}
330
C
100
AcDbDictionary
281
     1
  3
ByBlock
350
3D
  3
ByLayer
350
3C
  3
Global
350
3E
  0
DICTIONARY
  5
30E
102
{ACAD_REACTORS
330
C
102
}
330
C
100
AcDbDictionary
281
     1
  0
DICTIONARY
  5
17
102
{ACAD_REACTORS
330
C
102
}
330
C
100
AcDbDictionary
281
     1
  3
Standard
350
18
  0
DICTIONARY
  5
19
102
{ACAD_REACTORS
330
C
102
}
330
C
100
AcDbDictionary
281
     1
  0
ACDBDICTIONARYWDFLT
  5
E
102
{ACAD_REACTORS
330
C
102
}
330
C
100
AcDbDictionary
281
     1
  3
Normal
350
F
100
AcDbDictionaryWithDefault
340
F
  0
DICTIONARY
  5
2A
102
{ACAD_REACTORS
330
C
102
}
330
C
100
AcDbDictionary
281
     1
  3
2dWireframe
350
2F
  3
3D Hidden
350
31
  3
3dWireframe
350
30
  3
Basic
350
32
  3
Brighten
350
36
  3
ColorChange
350
3A
  3
Conceptual
350
34
  3
Dim
350
35
  3
Facepattern
350
39
  3
Flat
350
2B
  3
FlatWithEdges
350
2C
  3
Gouraud
350
2D
  3
GouraudWithEdges
350
2E
  3
Linepattern
350
38
  3
Realistic
350
33
  3
Thicken
350
37
  0
DICTIONARY
  5
30C
102
{ACAD_REACTORS
330
C
102
}
330
C
100
AcDbDictionary
281
     1
  3
DIMASSOC
350
30F
  3
HIDETEXT
350
310
  0
LAYOUT
  5
1E
102
{ACAD_REACTORS
330
1A
102
}
330
1A
100
AcDbPlotSettings
  1

  2
none_device
  4

  6

 40
0.0
 41
0.0
 42
0.0
 43
0.0
 44
0.0
 45
0.0
 46
0.0
 47
0.0
 48
0.0
 49
0.0
140
0.0
141
0.0
142
1.0
143
1.0
 70
   688
 72
     0
 73
     0
 74
     5
  7

 75
    16
147
1.0
148
0.0
149
0.0
100
AcDbLayout
  1
Layout1
 70
     1
 71
     1
 10
0.0
 20
0.0
 11
12.0
 21
9.0
 12
0.0
 22
0.0
 32
0.0
 14
1.00000000000000E+20
 24
1.00000000000000E+20
 34
1.00000000000000E+20
 15
-1.00000000000000E+20
 25
-1.00000000000000E+20
 35
-1.00000000000000E+20
146
0.0
 13
0.0
 23
0.0
 33
0.0
 16
1.0
 26
0.0
 36
0.0
 17
0.0
 27
1.0
 37
0.0
 76
     0
330
1B
  0
LAYOUT
  5
26
102
{ACAD_REACTORS
330
1A
102
}
330
1A
100
AcDbPlotSettings
  1

  2
none_device
  4

  6

 40
0.0
 41
0.0
 42
0.0
 43
0.0
 44
0.0
 45
0.0
 46
0.0
 47
0.0
 48
0.0
 49
0.0
140
0.0
141
0.0
142
1.0
143
1.0
 70
   688
 72
     0
 73
     0
 74
     5
  7

 75
    16
147
1.0
148
0.0
149
0.0
100
AcDbLayout
  1
Layout2
 70
     1
 71
     2
 10
0.0
 20
0.0
 11
0.0
 21
0.0
 12
0.0
 22
0.0
 32
0.0
 14
0.0
 24
0.0
 34
0.0
 15
0.0
 25
0.0
 35
0.0
146
0.0
 13
0.0
 23
0.0
 33
0.0
 16
1.0
 26
0.0
 36
0.0
 17
0.0
 27
1.0
 37
0.0
 76
     0
330
23
  0
LAYOUT
  5
22
102
{ACAD_REACTORS
330
1A
102
}
330
1A
100
AcDbPlotSettings
  1

  2
none_device
  4

  6

 40
0.0
 41
0.0
 42
0.0
 43
0.0
 44
0.0
 45
0.0
 46
0.0
 47
0.0
 48
0.0
 49
0.0
140
0.0
141
0.0
142
1.0
143
1.0
 70
  1712
 72
     0
 73
     0
 74
     0
  7

 75
     0
147
1.0
148
0.0
149
0.0
100
AcDbLayout
  1
Model
 70
     1
 71
     0
 10
0.0
 20
0.0
 11
12.0
 21
9.0
 12
0.0
 22
0.0
 32
0.0
 14
0.0
 24
0.0
 34
0.0
 15
297.0000000000002
 25
210.0000000000002
 35
0.0
146
0.0
 13
0.0
 23
0.0
 33
0.0
 16
1.0
 26
0.0
 36
0.0
 17
0.0
 27
1.0
 37
0.0
 76
     0
330
1F
331
29
  0
MATERIAL
  5
3D
102
{ACAD_REACTORS
330
3B
102
}
102
{ACAD_XDICTIONARY
360
333
102
}
330
3B
100
AcDbMaterial
  1
ByBlock
  0
MATERIAL
  5
3C
102
{ACAD_REACTORS
330
3B
102
}
102
{ACAD_XDICTIONARY
360
331
102
}
330
3B
100
AcDbMaterial
  1
ByLayer
  0
MATERIAL
  5
3E
102
{ACAD_REACTORS
330
3B
102
}
102
{ACAD_XDICTIONARY
360
335
102
}
330
3B
100
AcDbMaterial
  1
Global
  0
MLINESTYLE
  5
18
102
{ACAD_REACTORS
330
17
102
}
330
17
100
AcDbMlineStyle
  2
Standard
 70
     0
  3

 62
   256
 51
90.0
 52
90.0
 71
     2
 49
0.5
 62
   256
  6
BYLAYER
 49
-0.5
 62
   256
  6
BYLAYER
  0
ACDBPLACEHOLDER
  5
F
102
{ACAD_REACTORS
330
E
102
}
330
E
  0
VISUALSTYLE
  5
2F
102
{ACAD_REACTORS
330
2A
102
}
102
{ACAD_XDICTIONARY
360
319
102
}
330
2A
100
AcDbVisualStyle
  2
2dWireframe
 70
     4
 71
     0
 72
     2
 73
     0
 90
        0
 40
-0.6
 41
-30.0
 62
     5
 63
     7
 74
     1
 91
        4
 64
     7
 65
   257
 75
     1
175
     1
 42
1.0
 92
        0
 66
   257
 43
1.0
 76
     1
 77
     6
 78
     2
 67
     7
 79
     5
170
     0
171
     0
290
     0
174
     0
 93
        1
 44
0.0
173
     0
291
     0
 45
0.0
1001
ACAD
1000
AcDbSavedByObjectVersion
1070
     0
  0
VISUALSTYLE
  5
31
102
{ACAD_REACTORS
330
2A
102
}
102
{ACAD_XDICTIONARY
360
31D
102
}
330
2A
100
AcDbVisualStyle
  2
3D Hidden
 70
     6
 71
     1
 72
     2
 73
     2
 90
        0
 40
-0.6
 41
-30.0
 62
     5
 63
     7
 74
     2
 91
        2
 64
     7
 65
   257
 75
     2
175
     1
 42
40.0
 92
        0
 66
   257
 43
1.0
 76
     1
 77
     6
 78
     2
 67
     7
 79
     3
170
     0
171
     0
290
     0
174
     0
 93
        1
 44
0.0
173
     0
291
     0
 45
0.0
1001
ACAD
1000
AcDbSavedByObjectVersion
1070
     0
  0
VISUALSTYLE
  5
30
102
{ACAD_REACTORS
330
2A
102
}
102
{ACAD_XDICTIONARY
360
31B
102
}
330
2A
100
AcDbVisualStyle
  2
3dWireframe
 70
     5
 71
     0
 72
     2
 73
     0
 90
        0
 40
-0.6
 41
-30.0
 62
     5
 63
     7
 74
     1
 91
        4
 64
     7
 65
   257
 75
     1
175
     1
 42
1.0
 92
        0
 66
   257
 43
1.0
 76
     1
 77
     6
 78
     2
 67
     7
 79
     5
170
     0
171
     0
290
     0
174
     0
 93
        1
 44
0.0
173
     0
291
     0
 45
0.0
1001
ACAD
1000
AcDbSavedByObjectVersion
1070
     0
  0
VISUALSTYLE
  5
32
102
{ACAD_REACTORS
330
2A
102
}
102
{ACAD_XDICTIONARY
360
31F
102
}
330
2A
100
AcDbVisualStyle
  2
Basic
 70
     7
 71
     1
 72
     0
 73
     1
 90
        0
 40
-0.6
 41
-30.0
 62
     5
 63
     7
 74
     0
 91
        4
 64
     7
 65
   257
 75
     1
175
     1
 42
1.0
 92
        8
 66
     7
 43
1.0
 76
     1
 77
     6
 78
     2
 67
     7
 79
     5
170
     0
171
     0
290
     0
174
     0
 93
        1
 44
0.0
173
     0
291
     1
 45
0.0
1001
ACAD
1000
AcDbSavedByObjectVersion
1070
     0
  0
VISUALSTYLE
  5
36
102
{ACAD_REACTORS
330
2A
102
}
102
{ACAD_XDICTIONARY
360
327
102
}
330
2A
100
AcDbVisualStyle
  2
Brighten
 70
    12
 71
     2
 72
     2
 73
     0
 90
        0
 40
-0.6
 41
-30.0
 62
     5
 63
     7
 74
     1
 91
        4
 64
     7
 65
   257
 75
     1
175
     1
 42
1.0
 92
        8
 66
     7
 43
1.0
 76
     1
 77
     6
 78
     2
 67
     7
 79
     5
170
     0
171
     0
290
     0
174
     0
 93
        1
 44
50.0
173
     0
291
     1
 45
0.0
1001
ACAD
1000
AcDbSavedByObjectVersion
1070
     0
  0
VISUALSTYLE
  5
3A
102
{ACAD_REACTORS
330
2A
102
}
102
{ACAD_XDICTIONARY
360
32F
102
}
330
2A
100
AcDbVisualStyle
  2
ColorChange
 70
    16
 71
     2
 72
     2
 73
     3
 90
        0
 40
-0.6
 41
-30.0
 62
     5
 63
     8
 74
     1
 91
        4
 64
     7
 65
   257
 75
     1
175
     1
 42
1.0
 92
        8
 66
     8
 43
1.0
 76
     1
 77
     6
 78
     2
 67
     7
 79
     5
170
     0
171
     0
290
     0
174
     0
 93
        1
 44
0.0
173
     0
291
     1
 45
0.0
1001
ACAD
1000
AcDbSavedByObjectVersion
1070
     0
  0
VISUALSTYLE
  5
34
102
{ACAD_REACTORS
330
2A
102
}
102
{ACAD_XDICTIONARY
360
323
102
}
330
2A
100
AcDbVisualStyle
  2
Conceptual
 70
     9
 71
     3
 72
     2
 73
     0
 90
        0
 40
-0.6
 41
-30.0
 62
     5
 63
     7
 74
     2
 91
        2
 64
     7
 65
   257
 75
     1
175
     1
 42
40.0
 92
        8
 66
     7
 43
1.0
 76
     1
 77
     6
 78
     2
 67
     7
 79
     3
170
     0
171
     0
290
     0
174
     0
 93
        1
 44
0.0
173
     0
291
     0
 45
0.0
1001
ACAD
1000
AcDbSavedByObjectVersion
1070
     0
  0
VISUALSTYLE
  5
35
102
{ACAD_REACTORS
330
2A
102
}
102
{ACAD_XDICTIONARY
360
325
102
}
330
2A
100
AcDbVisualStyle
  2
Dim
 70
    11
 71
     2
 72
     2
 73
     0
 90
        0
 40
-0.6
 41
-30.0
 62
     5
 63
     7
 74
     1
 91
        4
 64
     7
 65
   257
 75
     1
175
     1
 42
1.0
 92
        8
 66
     7
 43
1.0
 76
     1
 77
     6
 78
     2
 67
     7
 79
     5
170
     0
171
     0
290
     0
174
     0
 93
        1
 44
-50.0
173
     0
291
     1
 45
0.0
1001
ACAD
1000
AcDbSavedByObjectVersion
1070
     0
  0
VISUALSTYLE
  5
39
102
{ACAD_REACTORS
330
2A
102
}
102
{ACAD_XDICTIONARY
360
32D
102
}
330
2A
100
AcDbVisualStyle
  2
Facepattern
 70
    15
 71
     2
 72
     2
 73
     0
 90
        0
 40
-0.6
 41
-30.0
 62
     5
 63
     7
 74
     1
 91
        4
 64
     7
 65
   257
 75
     1
175
     1
 42
1.0
 92
        8
 66
     7
 43
1.0
 76
     1
 77
     6
 78
     2
 67
     7
 79
     5
170
     0
171
     0
290
     0
174
     0
 93
        1
 44
0.0
173
     0
291
     1
 45
0.0
1001
ACAD
1000
AcDbSavedByObjectVersion
1070
     0
  0
VISUALSTYLE
  5
2B
102
{ACAD_REACTORS
330
2A
102
}
102
{ACAD_XDICTIONARY
360
311
102
}
330
2A
100
AcDbVisualStyle
  2
Flat
 70
     0
 71
     2
 72
     1
 73
     1
 90
        2
 40
-0.6
 41
30.0
 62
     5
 63
     7
 74
     0
 91
        4
 64
     7
 65
   257
 75
     1
175
     1
 42
1.0
 92
        8
 66
     7
 43
1.0
 76
     1
 77
     6
 78
     2
 67
     7
 79
     5
170
     0
171
     0
290
     0
174
     0
 93
       13
 44
0.0
173
     0
291
     1
 45
0.0
1001
ACAD
1000
AcDbSavedByObjectVersion
1070
     0
  0
VISUALSTYLE
  5
2C
102
{ACAD_REACTORS
330
2A
102
}
102
{ACAD_XDICTIONARY
360
313
102
}
330
2A
100
AcDbVisualStyle
  2
FlatWithEdges
 70
     1
 71
     2
 72
     1
 73
     1
 90
        2
 40
-0.6
 41
30.0
 62
     5
 63
     7
 74
     1
 91
        4
 64
     7
 65
   257
 75
     1
175
     1
 42
1.0
 92
        0
 66
   257
 43
1.0
 76
     1
 77
     6
 78
     2
 67
     7
 79
     5
170
     0
171
     0
290
     0
174
     0
 93
       13
 44
0.0
173
     0
291
     1
 45
0.0
1001
ACAD
1000
AcDbSavedByObjectVersion
1070
     0
  0
VISUALSTYLE
  5
2D
102
{ACAD_REACTORS
330
2A
102
}
102
{ACAD_XDICTIONARY
360
315
102
}
330
2A
100
AcDbVisualStyle
  2
Gouraud
 70
     2
 71
     2
 72
     2
 73
     1
 90
        2
 40
-0.6
 41
30.0
 62
     5
 63
     7
 74
     0
 91
        4
 64
     7
 65
   257
 75
     1
175
     1
 42
1.0
 92
        0
 66
     7
 43
1.0
 76
     1
 77
     6
 78
     2
 67
     7
 79
     5
170
     0
171
     0
290
     0
174
     0
 93
       13
 44
0.0
173
     0
291
     1
 45
0.0
1001
ACAD
1000
AcDbSavedByObjectVersion
1070
     0
  0
VISUALSTYLE
  5
2E
102
{ACAD_REACTORS
330
2A
102
}
102
{ACAD_XDICTIONARY
360
317
102
}
330
2A
100
AcDbVisualStyle
  2
GouraudWithEdges
 70
     3
 71
     2
 72
     2
 73
     1
 90
        2
 40
-0.6
 41
30.0
 62
     5
 63
     7
 74
     1
 91
        4
 64
     7
 65
   257
 75
     1
175
     1
 42
1.0
 92
        0
 66
   257
 43
1.0
 76
     1
 77
     6
 78
     2
 67
     7
 79
     5
170
     0
171
     0
290
     0
174
     0
 93
       13
 44
0.0
173
     0
291
     1
 45
0.0
1001
ACAD
1000
AcDbSavedByObjectVersion
1070
     0
  0
VISUALSTYLE
  5
38
102
{ACAD_REACTORS
330
2A
102
}
102
{ACAD_XDICTIONARY
360
32B
102
}
330
2A
100
AcDbVisualStyle
  2
Linepattern
 70
    14
 71
     2
 72
     2
 73
     0
 90
        0
 40
-0.6
 41
-30.0
 62
     5
 63
     7
 74
     1
 91
        4
 64
     7
 65
   257
 75
     7
175
     7
 42
1.0
 92
        8
 66
     7
 43
1.0
 76
     1
 77
     6
 78
     2
 67
     7
 79
     5
170
     0
171
     0
290
     0
174
     0
 93
        1
 44
0.0
173
     0
291
     1
 45
0.0
1001
ACAD
1000
AcDbSavedByObjectVersion
1070
     0
  0
VISUALSTYLE
  5
33
102
{ACAD_REACTORS
330
2A
102
}
102
{ACAD_XDICTIONARY
360
321
102
}
330
2A
100
AcDbVisualStyle
  2
Realistic
 70
     8
 71
     2
 72
     2
 73
     0
 90
        0
 40
-0.6
 41
-30.0
 62
     5
 63
     7
 74
     1
 91
        0
 64
     7
 65
   257
 75
     1
175
     1
 42
1.0
 92
        8
 66
     8
 43
1.0
 76
     1
 77
     6
 78
     2
 67
     7
 79
     5
170
     0
171
     0
290
     0
174
     0
 93
       13
 44
0.0
173
     0
291
     0
 45
0.0
1001
ACAD
1000
AcDbSavedByObjectVersion
1070
     0
  0
VISUALSTYLE
  5
37
102
{ACAD_REACTORS
330
2A
102
}
102
{ACAD_XDICTIONARY
360
329
102
}
330
2A
100
AcDbVisualStyle
  2
Thicken
 70
    13
 71
     2
 72
     2
 73
     0
 90
        0
 40
-0.6
 41
-30.0
 62
     5
 63
     7
 74
     1
 91
        4
 64
     7
 65
   257
 75
     1
175
     1
 42
1.0
 92
       12
 66
     7
 43
1.0
 76
     1
 77
     6
 78
     2
 67
     7
 79
     5
170
     0
171
     0
290
     0
174
     0
 93
        1
 44
0.0
173
     0
291
     1
 45
0.0
1001
ACAD
1000
AcDbSavedByObjectVersion
1070
     0
  0
DICTIONARYVAR
  5
30F
102
{ACAD_REACTORS
330
30C
102
}
330
30C
100
DictionaryVariables
280
     0
  1
2
  0
DICTIONARYVAR
  5
310
102
{ACAD_REACTORS
330
30C
102
}
330
30C
100
DictionaryVariables
280
     0
  1
1
  0
DICTIONARY
  5
333
330
3D
100
AcDbDictionary
280
     1
281
     1
  3
ACAD_XREC_ROUNDTRIP
360
334
  0
DICTIONARY
  5
331
330
3C
100
AcDbDictionary
280
     1
281
     1
  3
ACAD_XREC_ROUNDTRIP
360
332
  0
DICTIONARY
  5
335
330
3E
100
AcDbDictionary
280
     1
281
     1
  3
ACAD_XREC_ROUNDTRIP
360
336
  0
DICTIONARY
  5
319
330
2F
100
AcDbDictionary
280
     1
281
     1
  3
ACAD_XREC_ROUNDTRIP
360
31A
  0
DICTIONARY
  5
31D
330
31
100
AcDbDictionary
280
     1
281
     1
  3
ACAD_XREC_ROUNDTRIP
360
31E
  0
DICTIONARY
  5
31B
330
30
100
AcDbDictionary
280
     1
281
     1
  3
ACAD_XREC_ROUNDTRIP
360
31C
  0
DICTIONARY
  5
31F
330
32
100
AcDbDictionary
280
     1
281
     1
  3
ACAD_XREC_ROUNDTRIP
360
320
  0
DICTIONARY
  5
327
330
36
100
AcDbDictionary
280
     1
281
     1
  3
ACAD_XREC_ROUNDTRIP
360
328
  0
DICTIONARY
  5
32F
330
3A
100
AcDbDictionary
280
     1
281
     1
  3
ACAD_XREC_ROUNDTRIP
360
330
  0
DICTIONARY
  5
323
330
34
100
AcDbDictionary
280
     1
281
     1
  3
ACAD_XREC_ROUNDTRIP
360
324
  0
DICTIONARY
  5
325
330
35
100
AcDbDictionary
280
     1
281
     1
  3
ACAD_XREC_ROUNDTRIP
360
326
  0
DICTIONARY
  5
32D
330
39
100
AcDbDictionary
280
     1
281
     1
  3
ACAD_XREC_ROUNDTRIP
360
32E
  0
DICTIONARY
  5
311
330
2B
100
AcDbDictionary
280
     1
281
     1
  3
ACAD_XREC_ROUNDTRIP
360
312
  0
DICTIONARY
  5
313
330
2C
100
AcDbDictionary
280
     1
281
     1
  3
ACAD_XREC_ROUNDTRIP
360
314
  0
DICTIONARY
  5
315
330
2D
100
AcDbDictionary
280
     1
281
     1
  3
ACAD_XREC_ROUNDTRIP
360
316
  0
DICTIONARY
  5
317
330
2E
100
AcDbDictionary
280
     1
281
     1
  3
ACAD_XREC_ROUNDTRIP
360
318
  0
DICTIONARY
  5
32B
330
38
100
AcDbDictionary
280
     1
281
     1
  3
ACAD_XREC_ROUNDTRIP
360
32C
  0
DICTIONARY
  5
321
330
33
100
AcDbDictionary
280
     1
281
     1
  3
ACAD_XREC_ROUNDTRIP
360
322
  0
DICTIONARY
  5
329
330
37
100
AcDbDictionary
280
     1
281
     1
  3
ACAD_XREC_ROUNDTRIP
360
32A
  0
XRECORD
  5
334
102
{ACAD_REACTORS
330
333
102
}
330
333
100
AcDbXrecord
280
     1
102
MATERIAL
148
0.0
149
0.0
149
0.0
 93
        0
 94
      127
282
     0
 72
     1
 77
     1
171
     1
175
     1
179
     1
273
     0
  0
XRECORD
  5
332
102
{ACAD_REACTORS
330
331
102
}
330
331
100
AcDbXrecord
280
     1
102
MATERIAL
148
0.0
149
0.0
149
0.0
 93
        0
 94
      127
282
     0
 72
     1
 77
     1
171
     1
175
     1
179
     1
273
     0
  0
XRECORD
  5
336
102
{ACAD_REACTORS
330
335
102
}
330
335
100
AcDbXrecord
280
     1
102
MATERIAL
148
0.0
149
0.0
149
0.0
 93
        0
 94
      127
282
     0
 72
     1
 77
     1
171
     1
175
     1
179
     1
273
     0
  0
XRECORD
  5
31A
102
{ACAD_REACTORS
330
319
102
}
330
319
100
AcDbXrecord
280
     1
102
RTVSPropertyOp0
 70
     1
102
RTVSPropertyOp1
 70
     1
102
RTVSPropertyOp2
 70
     1
102
RTVSPropertyOp3
 70
     1
102
RTVSPropertyOp4
 70
     1
102
RTVSPropertyOp5
 70
     1
102
RTVSPropertyOp6
 70
     1
102
RTVSPropertyOp7
 70
     1
102
RTVSPropertyOp8
 70
     1
102
RTVSPropertyOp9
 70
     1
102
RTVSPropertyOp10
 70
     1
102
RTVSPropertyOp11
 70
     1
102
RTVSPropertyOp12
 70
     1
102
RTVSPropertyOp13
 70
     1
102
RTVSPropertyOp14
 70
     1
102
RTVSPropertyOp15
 70
     1
102
RTVSPropertyOp16
 70
     1
102
RTVSPropertyOp17
 70
     1
102
RTVSPropertyOp18
 70
     1
102
RTVSPropertyOp19
 70
     1
102
RTVSPropertyOp20
 70
     1
102
RTVSPropertyOp21
 70
     1
102
RTVSPropertyOp22
 70
     1
102
RTVSPropertyOp23
 70
     1
102
RTVSPropertyOp24
 70
     1
102
RTVSPropertyOp25
 70
     1
102
RTVSPropertyOp26
 70
     1
102
RTVSPropertyOp27
 70
     1
102
RTVSPropertyOp28
 70
     1
102
RTVSPropertyOp29
 70
     1
102
RTVSPropertyOp30
 70
     1
102
RTVSPropertyOp31
 70
     1
102
RTVSPropertyOp32
 70
     1
  0
XRECORD
  5
31E
102
{ACAD_REACTORS
330
31D
102
}
330
31D
100
AcDbXrecord
280
     1
102
RTVSPropertyOp0
 70
     1
102
RTVSPropertyOp1
 70
     1
102
RTVSPropertyOp2
 70
     1
102
RTVSPropertyOp3
 70
     1
102
RTVSPropertyOp4
 70
     1
102
RTVSPropertyOp5
 70
     1
102
RTVSPropertyOp6
 70
     1
102
RTVSPropertyOp7
 70
     1
102
RTVSPropertyOp8
 70
     1
102
RTVSPropertyOp9
 70
     1
102
RTVSPropertyOp10
 70
     1
102
RTVSPropertyOp11
 70
     1
102
RTVSPropertyOp12
 70
     1
102
RTVSPropertyOp13
 70
     1
102
RTVSPropertyOp14
 70
     1
102
RTVSPropertyOp15
 70
     1
102
RTVSPropertyOp16
 70
     1
102
RTVSPropertyOp17
 70
     1
102
RTVSPropertyOp18
 70
     1
102
RTVSPropertyOp19
 70
     1
102
RTVSPropertyOp20
 70
     1
102
RTVSPropertyOp21
 70
     1
102
RTVSPropertyOp22
 70
     1
102
RTVSPropertyOp23
 70
     1
102
RTVSPropertyOp24
 70
     1
102
RTVSPropertyOp25
 70
     1
102
RTVSPropertyOp26
 70
     1
102
RTVSPropertyOp27
 70
     1
102
RTVSPropertyOp28
 70
     1
102
RTVSPropertyOp29
 70
     1
102
RTVSPropertyOp30
 70
     1
102
RTVSPropertyOp31
 70
     1
102
RTVSPropertyOp32
 70
     1
  0
XRECORD
  5
31C
102
{ACAD_REACTORS
330
31B
102
}
330
31B
100
AcDbXrecord
280
     1
102
RTVSPropertyOp0
 70
     1
102
RTVSPropertyOp1
 70
     1
102
RTVSPropertyOp2
 70
     1
102
RTVSPropertyOp3
 70
     1
102
RTVSPropertyOp4
 70
     1
102
RTVSPropertyOp5
 70
     1
102
RTVSPropertyOp6
 70
     1
102
RTVSPropertyOp7
 70
     1
102
RTVSPropertyOp8
 70
     1
102
RTVSPropertyOp9
 70
     1
102
RTVSPropertyOp10
 70
     1
102
RTVSPropertyOp11
 70
     1
102
RTVSPropertyOp12
 70
     1
102
RTVSPropertyOp13
 70
     1
102
RTVSPropertyOp14
 70
     1
102
RTVSPropertyOp15
 70
     1
102
RTVSPropertyOp16
 70
     1
102
RTVSPropertyOp17
 70
     1
102
RTVSPropertyOp18
 70
     1
102
RTVSPropertyOp19
 70
     1
102
RTVSPropertyOp20
 70
     1
102
RTVSPropertyOp21
 70
     1
102
RTVSPropertyOp22
 70
     1
102
RTVSPropertyOp23
 70
     1
102
RTVSPropertyOp24
 70
     1
102
RTVSPropertyOp25
 70
     1
102
RTVSPropertyOp26
 70
     1
102
RTVSPropertyOp27
 70
     1
102
RTVSPropertyOp28
 70
     1
102
RTVSPropertyOp29
 70
     1
102
RTVSPropertyOp30
 70
     1
102
RTVSPropertyOp31
 70
     1
102
RTVSPropertyOp32
 70
     1
  0
XRECORD
  5
320
102
{ACAD_REACTORS
330
31F
102
}
330
31F
100
AcDbXrecord
280
     1
102
RTVSPropertyOp0
 70
     1
102
RTVSPropertyOp1
 70
     1
102
RTVSPropertyOp2
 70
     1
102
RTVSPropertyOp3
 70
     1
102
RTVSPropertyOp4
 70
     1
102
RTVSPropertyOp5
 70
     1
102
RTVSPropertyOp6
 70
     1
102
RTVSPropertyOp7
 70
     1
102
RTVSPropertyOp8
 70
     1
102
RTVSPropertyOp9
 70
     1
102
RTVSPropertyOp10
 70
     1
102
RTVSPropertyOp11
 70
     1
102
RTVSPropertyOp12
 70
     1
102
RTVSPropertyOp13
 70
     1
102
RTVSPropertyOp14
 70
     1
102
RTVSPropertyOp15
 70
     1
102
RTVSPropertyOp16
 70
     1
102
RTVSPropertyOp17
 70
     1
102
RTVSPropertyOp18
 70
     1
102
RTVSPropertyOp19
 70
     1
102
RTVSPropertyOp20
 70
     1
102
RTVSPropertyOp21
 70
     1
102
RTVSPropertyOp22
 70
     1
102
RTVSPropertyOp23
 70
     1
102
RTVSPropertyOp24
 70
     1
102
RTVSPropertyOp25
 70
     1
102
RTVSPropertyOp26
 70
     1
102
RTVSPropertyOp27
 70
     1
102
RTVSPropertyOp28
 70
     1
102
RTVSPropertyOp29
 70
     1
102
RTVSPropertyOp30
 70
     1
102
RTVSPropertyOp31
 70
     1
102
RTVSPropertyOp32
 70
     1
  0
XRECORD
  5
328
102
{ACAD_REACTORS
330
327
102
}
330
327
100
AcDbXrecord
280
     1
102
RTVSPropertyOp0
 70
     1
102
RTVSPropertyOp1
 70
     1
102
RTVSPropertyOp2
 70
     1
102
RTVSPropertyOp3
 70
     1
102
RTVSPropertyOp4
 70
     1
102
RTVSPropertyOp5
 70
     1
102
RTVSPropertyOp6
 70
     1
102
RTVSPropertyOp7
 70
     1
102
RTVSPropertyOp8
 70
     1
102
RTVSPropertyOp9
 70
     1
102
RTVSPropertyOp10
 70
     1
102
RTVSPropertyOp11
 70
     1
102
RTVSPropertyOp12
 70
     1
102
RTVSPropertyOp13
 70
     1
102
RTVSPropertyOp14
 70
     1
102
RTVSPropertyOp15
 70
     1
102
RTVSPropertyOp16
 70
     1
102
RTVSPropertyOp17
 70
     1
102
RTVSPropertyOp18
 70
     1
102
RTVSPropertyOp19
 70
     1
102
RTVSPropertyOp20
 70
     1
102
RTVSPropertyOp21
 70
     1
102
RTVSPropertyOp22
 70
     1
102
RTVSPropertyOp23
 70
     1
102
RTVSPropertyOp24
 70
     1
102
RTVSPropertyOp25
 70
     1
102
RTVSPropertyOp26
 70
     1
102
RTVSPropertyOp27
 70
     1
102
RTVSPropertyOp28
 70
     1
102
RTVSPropertyOp29
 70
     1
102
RTVSPropertyOp30
 70
     1
102
RTVSPropertyOp31
 70
     1
102
RTVSPropertyOp32
 70
     1
  0
XRECORD
  5
330
102
{ACAD_REACTORS
330
32F
102
}
330
32F
100
AcDbXrecord
280
     1
102
RTVSPropertyOp0
 70
     1
102
RTVSPropertyOp1
 70
     1
102
RTVSPropertyOp2
 70
     1
102
RTVSPropertyOp3
 70
     1
102
RTVSPropertyOp4
 70
     1
102
RTVSPropertyOp5
 70
     1
102
RTVSPropertyOp6
 70
     1
102
RTVSPropertyOp7
 70
     1
102
RTVSPropertyOp8
 70
     1
102
RTVSPropertyOp9
 70
     1
102
RTVSPropertyOp10
 70
     1
102
RTVSPropertyOp11
 70
     1
102
RTVSPropertyOp12
 70
     1
102
RTVSPropertyOp13
 70
     1
102
RTVSPropertyOp14
 70
     1
102
RTVSPropertyOp15
 70
     1
102
RTVSPropertyOp16
 70
     1
102
RTVSPropertyOp17
 70
     1
102
RTVSPropertyOp18
 70
     1
102
RTVSPropertyOp19
 70
     1
102
RTVSPropertyOp20
 70
     1
102
RTVSPropertyOp21
 70
     1
102
RTVSPropertyOp22
 70
     1
102
RTVSPropertyOp23
 70
     1
102
RTVSPropertyOp24
 70
     1
102
RTVSPropertyOp25
 70
     1
102
RTVSPropertyOp26
 70
     1
102
RTVSPropertyOp27
 70
     1
102
RTVSPropertyOp28
 70
     1
102
RTVSPropertyOp29
 70
     1
102
RTVSPropertyOp30
 70
     1
102
RTVSPropertyOp31
 70
     1
102
RTVSPropertyOp32
 70
     1
  0
XRECORD
  5
324
102
{ACAD_REACTORS
330
323
102
}
330
323
100
AcDbXrecord
280
     1
102
RTVSPropertyOp0
 70
     1
102
RTVSPropertyOp1
 70
     1
102
RTVSPropertyOp2
 70
     1
102
RTVSPropertyOp3
 70
     1
102
RTVSPropertyOp4
 70
     1
102
RTVSPropertyOp5
 70
     1
102
RTVSPropertyOp6
 70
     1
102
RTVSPropertyOp7
 70
     1
102
RTVSPropertyOp8
 70
     1
102
RTVSPropertyOp9
 70
     1
102
RTVSPropertyOp10
 70
     1
102
RTVSPropertyOp11
 70
     1
102
RTVSPropertyOp12
 70
     1
102
RTVSPropertyOp13
 70
     1
102
RTVSPropertyOp14
 70
     1
102
RTVSPropertyOp15
 70
     1
102
RTVSPropertyOp16
 70
     1
102
RTVSPropertyOp17
 70
     1
102
RTVSPropertyOp18
 70
     1
102
RTVSPropertyOp19
 70
     1
102
RTVSPropertyOp20
 70
     1
102
RTVSPropertyOp21
 70
     1
102
RTVSPropertyOp22
 70
     1
102
RTVSPropertyOp23
 70
     1
102
RTVSPropertyOp24
 70
     1
102
RTVSPropertyOp25
 70
     1
102
RTVSPropertyOp26
 70
     1
102
RTVSPropertyOp27
 70
     1
102
RTVSPropertyOp28
 70
     1
102
RTVSPropertyOp29
 70
     1
102
RTVSPropertyOp30
 70
     1
102
RTVSPropertyOp31
 70
     1
102
RTVSPropertyOp32
 70
     1
  0
XRECORD
  5
326
102
{ACAD_REACTORS
330
325
102
}
330
325
100
AcDbXrecord
280
     1
102
RTVSPropertyOp0
 70
     1
102
RTVSPropertyOp1
 70
     1
102
RTVSPropertyOp2
 70
     1
102
RTVSPropertyOp3
 70
     1
102
RTVSPropertyOp4
 70
     1
102
RTVSPropertyOp5
 70
     1
102
RTVSPropertyOp6
 70
     1
102
RTVSPropertyOp7
 70
     1
102
RTVSPropertyOp8
 70
     1
102
RTVSPropertyOp9
 70
     1
102
RTVSPropertyOp10
 70
     1
102
RTVSPropertyOp11
 70
     1
102
RTVSPropertyOp12
 70
     1
102
RTVSPropertyOp13
 70
     1
102
RTVSPropertyOp14
 70
     1
102
RTVSPropertyOp15
 70
     1
102
RTVSPropertyOp16
 70
     1
102
RTVSPropertyOp17
 70
     1
102
RTVSPropertyOp18
 70
     1
102
RTVSPropertyOp19
 70
     1
102
RTVSPropertyOp20
 70
     1
102
RTVSPropertyOp21
 70
     1
102
RTVSPropertyOp22
 70
     1
102
RTVSPropertyOp23
 70
     1
102
RTVSPropertyOp24
 70
     1
102
RTVSPropertyOp25
 70
     1
102
RTVSPropertyOp26
 70
     1
102
RTVSPropertyOp27
 70
     1
102
RTVSPropertyOp28
 70
     1
102
RTVSPropertyOp29
 70
     1
102
RTVSPropertyOp30
 70
     1
102
RTVSPropertyOp31
 70
     1
102
RTVSPropertyOp32
 70
     1
  0
XRECORD
  5
32E
102
{ACAD_REACTORS
330
32D
102
}
330
32D
100
AcDbXrecord
280
     1
102
RTVSPropertyOp0
 70
     1
102
RTVSPropertyOp1
 70
     1
102
RTVSPropertyOp2
 70
     1
102
RTVSPropertyOp3
 70
     1
102
RTVSPropertyOp4
 70
     1
102
RTVSPropertyOp5
 70
     1
102
RTVSPropertyOp6
 70
     1
102
RTVSPropertyOp7
 70
     1
102
RTVSPropertyOp8
 70
     1
102
RTVSPropertyOp9
 70
     1
102
RTVSPropertyOp10
 70
     1
102
RTVSPropertyOp11
 70
     1
102
RTVSPropertyOp12
 70
     1
102
RTVSPropertyOp13
 70
     1
102
RTVSPropertyOp14
 70
     1
102
RTVSPropertyOp15
 70
     1
102
RTVSPropertyOp16
 70
     1
102
RTVSPropertyOp17
 70
     1
102
RTVSPropertyOp18
 70
     1
102
RTVSPropertyOp19
 70
     1
102
RTVSPropertyOp20
 70
     1
102
RTVSPropertyOp21
 70
     1
102
RTVSPropertyOp22
 70
     1
102
RTVSPropertyOp23
 70
     1
102
RTVSPropertyOp24
 70
     1
102
RTVSPropertyOp25
 70
     1
102
RTVSPropertyOp26
 70
     1
102
RTVSPropertyOp27
 70
     1
102
RTVSPropertyOp28
 70
     1
102
RTVSPropertyOp29
 70
     1
102
RTVSPropertyOp30
 70
     1
102
RTVSPropertyOp31
 70
     1
102
RTVSPropertyOp32
 70
     1
  0
XRECORD
  5
312
102
{ACAD_REACTORS
330
311
102
}
330
311
100
AcDbXrecord
280
     1
102
RTVSPropertyOp0
 70
     1
102
RTVSPropertyOp1
 70
     1
102
RTVSPropertyOp2
 70
     1
102
RTVSPropertyOp3
 70
     1
102
RTVSPropertyOp4
 70
     1
102
RTVSPropertyOp5
 70
     1
102
RTVSPropertyOp6
 70
     1
102
RTVSPropertyOp7
 70
     1
102
RTVSPropertyOp8
 70
     1
102
RTVSPropertyOp9
 70
     1
102
RTVSPropertyOp10
 70
     1
102
RTVSPropertyOp11
 70
     1
102
RTVSPropertyOp12
 70
     1
102
RTVSPropertyOp13
 70
     1
102
RTVSPropertyOp14
 70
     1
102
RTVSPropertyOp15
 70
     1
102
RTVSPropertyOp16
 70
     1
102
RTVSPropertyOp17
 70
     1
102
RTVSPropertyOp18
 70
     1
102
RTVSPropertyOp19
 70
     1
102
RTVSPropertyOp20
 70
     1
102
RTVSPropertyOp21
 70
     1
102
RTVSPropertyOp22
 70
     1
102
RTVSPropertyOp23
 70
     1
102
RTVSPropertyOp24
 70
     1
102
RTVSPropertyOp25
 70
     1
102
RTVSPropertyOp26
 70
     1
102
RTVSPropertyOp27
 70
     1
102
RTVSPropertyOp28
 70
     1
102
RTVSPropertyOp29
 70
     1
102
RTVSPropertyOp30
 70
     1
102
RTVSPropertyOp31
 70
     1
102
RTVSPropertyOp32
 70
     1
  0
XRECORD
  5
314
102
{ACAD_REACTORS
330
313
102
}
330
313
100
AcDbXrecord
280
     1
102
RTVSPropertyOp0
 70
     1
102
RTVSPropertyOp1
 70
     1
102
RTVSPropertyOp2
 70
     1
102
RTVSPropertyOp3
 70
     1
102
RTVSPropertyOp4
 70
     1
102
RTVSPropertyOp5
 70
     1
102
RTVSPropertyOp6
 70
     1
102
RTVSPropertyOp7
 70
     1
102
RTVSPropertyOp8
 70
     1
102
RTVSPropertyOp9
 70
     1
102
RTVSPropertyOp10
 70
     1
102
RTVSPropertyOp11
 70
     1
102
RTVSPropertyOp12
 70
     1
102
RTVSPropertyOp13
 70
     1
102
RTVSPropertyOp14
 70
     1
102
RTVSPropertyOp15
 70
     1
102
RTVSPropertyOp16
 70
     1
102
RTVSPropertyOp17
 70
     1
102
RTVSPropertyOp18
 70
     1
102
RTVSPropertyOp19
 70
     1
102
RTVSPropertyOp20
 70
     1
102
RTVSPropertyOp21
 70
     1
102
RTVSPropertyOp22
 70
     1
102
RTVSPropertyOp23
 70
     1
102
RTVSPropertyOp24
 70
     1
102
RTVSPropertyOp25
 70
     1
102
RTVSPropertyOp26
 70
     1
102
RTVSPropertyOp27
 70
     1
102
RTVSPropertyOp28
 70
     1
102
RTVSPropertyOp29
 70
     1
102
RTVSPropertyOp30
 70
     1
102
RTVSPropertyOp31
 70
     1
102
RTVSPropertyOp32
 70
     1
  0
XRECORD
  5
316
102
{ACAD_REACTORS
330
315
102
}
330
315
100
AcDbXrecord
280
     1
102
RTVSPropertyOp0
 70
     1
102
RTVSPropertyOp1
 70
     1
102
RTVSPropertyOp2
 70
     1
102
RTVSPropertyOp3
 70
     1
102
RTVSPropertyOp4
 70
     1
102
RTVSPropertyOp5
 70
     1
102
RTVSPropertyOp6
 70
     1
102
RTVSPropertyOp7
 70
     1
102
RTVSPropertyOp8
 70
     1
102
RTVSPropertyOp9
 70
     1
102
RTVSPropertyOp10
 70
     1
102
RTVSPropertyOp11
 70
     1
102
RTVSPropertyOp12
 70
     1
102
RTVSPropertyOp13
 70
     1
102
RTVSPropertyOp14
 70
     1
102
RTVSPropertyOp15
 70
     1
102
RTVSPropertyOp16
 70
     1
102
RTVSPropertyOp17
 70
     1
102
RTVSPropertyOp18
 70
     1
102
RTVSPropertyOp19
 70
     1
102
RTVSPropertyOp20
 70
     1
102
RTVSPropertyOp21
 70
     1
102
RTVSPropertyOp22
 70
     1
102
RTVSPropertyOp23
 70
     1
102
RTVSPropertyOp24
 70
     1
102
RTVSPropertyOp25
 70
     1
102
RTVSPropertyOp26
 70
     1
102
RTVSPropertyOp27
 70
     1
102
RTVSPropertyOp28
 70
     1
102
RTVSPropertyOp29
 70
     1
102
RTVSPropertyOp30
 70
     1
102
RTVSPropertyOp31
 70
     1
102
RTVSPropertyOp32
 70
     1
  0
XRECORD
  5
318
102
{ACAD_REACTORS
330
317
102
}
330
317
100
AcDbXrecord
280
     1
102
RTVSPropertyOp0
 70
     1
102
RTVSPropertyOp1
 70
     1
102
RTVSPropertyOp2
 70
     1
102
RTVSPropertyOp3
 70
     1
102
RTVSPropertyOp4
 70
     1
102
RTVSPropertyOp5
 70
     1
102
RTVSPropertyOp6
 70
     1
102
RTVSPropertyOp7
 70
     1
102
RTVSPropertyOp8
 70
     1
102
RTVSPropertyOp9
 70
     1
102
RTVSPropertyOp10
 70
     1
102
RTVSPropertyOp11
 70
     1
102
RTVSPropertyOp12
 70
     1
102
RTVSPropertyOp13
 70
     1
102
RTVSPropertyOp14
 70
     1
102
RTVSPropertyOp15
 70
     1
102
RTVSPropertyOp16
 70
     1
102
RTVSPropertyOp17
 70
     1
102
RTVSPropertyOp18
 70
     1
102
RTVSPropertyOp19
 70
     1
102
RTVSPropertyOp20
 70
     1
102
RTVSPropertyOp21
 70
     1
102
RTVSPropertyOp22
 70
     1
102
RTVSPropertyOp23
 70
     1
102
RTVSPropertyOp24
 70
     1
102
RTVSPropertyOp25
 70
     1
102
RTVSPropertyOp26
 70
     1
102
RTVSPropertyOp27
 70
     1
102
RTVSPropertyOp28
 70
     1
102
RTVSPropertyOp29
 70
     1
102
RTVSPropertyOp30
 70
     1
102
RTVSPropertyOp31
 70
     1
102
RTVSPropertyOp32
 70
     1
  0
XRECORD
  5
32C
102
{ACAD_REACTORS
330
32B
102
}
330
32B
100
AcDbXrecord
280
     1
102
RTVSPropertyOp0
 70
     1
102
RTVSPropertyOp1
 70
     1
102
RTVSPropertyOp2
 70
     1
102
RTVSPropertyOp3
 70
     1
102
RTVSPropertyOp4
 70
     1
102
RTVSPropertyOp5
 70
     1
102
RTVSPropertyOp6
 70
     1
102
RTVSPropertyOp7
 70
     1
102
RTVSPropertyOp8
 70
     1
102
RTVSPropertyOp9
 70
     1
102
RTVSPropertyOp10
 70
     1
102
RTVSPropertyOp11
 70
     1
102
RTVSPropertyOp12
 70
     1
102
RTVSPropertyOp13
 70
     1
102
RTVSPropertyOp14
 70
     1
102
RTVSPropertyOp15
 70
     1
102
RTVSPropertyOp16
 70
     1
102
RTVSPropertyOp17
 70
     1
102
RTVSPropertyOp18
 70
     1
102
RTVSPropertyOp19
 70
     1
102
RTVSPropertyOp20
 70
     1
102
RTVSPropertyOp21
 70
     1
102
RTVSPropertyOp22
 70
     1
102
RTVSPropertyOp23
 70
     1
102
RTVSPropertyOp24
 70
     1
102
RTVSPropertyOp25
 70
     1
102
RTVSPropertyOp26
 70
     1
102
RTVSPropertyOp27
 70
     1
102
RTVSPropertyOp28
 70
     1
102
RTVSPropertyOp29
 70
     1
102
RTVSPropertyOp30
 70
     1
102
RTVSPropertyOp31
 70
     1
102
RTVSPropertyOp32
 70
     1
  0
XRECORD
  5
322
102
{ACAD_REACTORS
330
321
102
}
330
321
100
AcDbXrecord
280
     1
102
RTVSPropertyOp0
 70
     1
102
RTVSPropertyOp1
 70
     1
102
RTVSPropertyOp2
 70
     1
102
RTVSPropertyOp3
 70
     1
102
RTVSPropertyOp4
 70
     1
102
RTVSPropertyOp5
 70
     1
102
RTVSPropertyOp6
 70
     1
102
RTVSPropertyOp7
 70
     1
102
RTVSPropertyOp8
 70
     1
102
RTVSPropertyOp9
 70
     1
102
RTVSPropertyOp10
 70
     1
102
RTVSPropertyOp11
 70
     1
102
RTVSPropertyOp12
 70
     1
102
RTVSPropertyOp13
 70
     1
102
RTVSPropertyOp14
 70
     1
102
RTVSPropertyOp15
 70
     1
102
RTVSPropertyOp16
 70
     1
102
RTVSPropertyOp17
 70
     1
102
RTVSPropertyOp18
 70
     1
102
RTVSPropertyOp19
 70
     1
102
RTVSPropertyOp20
 70
     1
102
RTVSPropertyOp21
 70
     1
102
RTVSPropertyOp22
 70
     1
102
RTVSPropertyOp23
 70
     1
102
RTVSPropertyOp24
 70
     1
102
RTVSPropertyOp25
 70
     1
102
RTVSPropertyOp26
 70
     1
102
RTVSPropertyOp27
 70
     1
102
RTVSPropertyOp28
 70
     1
102
RTVSPropertyOp29
 70
     1
102
RTVSPropertyOp30
 70
     1
102
RTVSPropertyOp31
 70
     1
102
RTVSPropertyOp32
 70
     1
  0
XRECORD
  5
32A
102
{ACAD_REACTORS
330
329
102
}
330
329
100
AcDbXrecord
280
     1
102
RTVSPropertyOp0
 70
     1
102
RTVSPropertyOp1
 70
     1
102
RTVSPropertyOp2
 70
     1
102
RTVSPropertyOp3
 70
     1
102
RTVSPropertyOp4
 70
     1
102
RTVSPropertyOp5
 70
     1
102
RTVSPropertyOp6
 70
     1
102
RTVSPropertyOp7
 70
     1
102
RTVSPropertyOp8
 70
     1
102
RTVSPropertyOp9
 70
     1
102
RTVSPropertyOp10
 70
     1
102
RTVSPropertyOp11
 70
     1
102
RTVSPropertyOp12
 70
     1
102
RTVSPropertyOp13
 70
     1
102
RTVSPropertyOp14
 70
     1
102
RTVSPropertyOp15
 70
     1
102
RTVSPropertyOp16
 70
     1
102
RTVSPropertyOp17
 70
     1
102
RTVSPropertyOp18
 70
     1
102
RTVSPropertyOp19
 70
     1
102
RTVSPropertyOp20
 70
     1
102
RTVSPropertyOp21
 70
     1
102
RTVSPropertyOp22
 70
     1
102
RTVSPropertyOp23
 70
     1
102
RTVSPropertyOp24
 70
     1
102
RTVSPropertyOp25
 70
     1
102
RTVSPropertyOp26
 70
     1
102
RTVSPropertyOp27
 70
     1
102
RTVSPropertyOp28
 70
     1
102
RTVSPropertyOp29
 70
     1
102
RTVSPropertyOp30
 70
     1
102
RTVSPropertyOp31
 70
     1
102
RTVSPropertyOp32
 70
     1
  0
ENDSEC
  0
EOF
